Невестка / Bhabhi (Кишор Вьяс / Kishore Vyas) [1991, Индия, Драма, комедия, семейный, DVDRip] VO (Nastia) + Original + Sub Rus

Ответить на тему
 
Автор Сообщение

user ®

Стаж: 12 лет

Сообщений: 15092

Пост Пост: #1 от 15-Фев-2014 21:20

[Цитировать]

Невестка / Bhabhi--
Страна: Индия
Жанр: Драма, комедия, семейный
Год выпуска: 1991
Продолжительность: 02:18:37
Перевод: Одноголосый закадровый (Nastia)
Перевод субтитров: jyoti
Cубтитры: Есть (на песни)
Оригинальная аудиодорожка: хинди--Режиссер: Кишор Вьяс / Kishore Vyas--В ролях: Говинда, Бхануприя, Джухи Чавла, Ананд Балрадж, Гульшан Гровер, Шобха Прадхан, Аджит Вачани, Сахила Чаддха, Шаши Пури, Рам Мохан, Динеш Хингу, Амит Бхалла, Сангита Наик--Описание: Ганшьямдас – богач, у которого есть все, кроме тихого семейного счастья. Скандальная жена Шанти, капризная дочь Шобха, испорченный сын Пракаш и коварный шурин Ракеш всячески отравляют его существование, и единственный свет в окошке – добрый и ласковый племянник Амар (Говинда). Рамдас – бедняк, бывший школьный учитель, но его отрада – внучка Сита (Бхануприя), впитавшая в себя все лучшее от индийской культуры. Волею судьбы девушка входит в дом богача в качестве невестки. Хэппи энд? Не тут-то было: веселая семейка на все лады портит ей жизнь, сживая со света. Надолго ли хватит терпения невестки Ситы? И что будет, когда терпение истощится?--Благодарность:
larisa_k, за предоставленные материалы
*angel*, за DVD9 (без перевода)
jyoti, за перевод субтитров
Nastia, за озвучку фильма
Рип и сведение звука: pca1962--
Сэмпл: http://multi-up.com/951353
Качество видео: DVDRip
Формат видео: AVI
Видео: XviD, 640x480, 23.97 fps, 1623 kbps
Аудио: AC3, 48 kHz, 2.0 (stereo), 192 kbps (русский)
Аудио 2: AC3, 48 kHz, 5.1 (6 ch), 320 kbps (хинди)
Формат субтитров: softsub (SRT)-
-

MediaInfo

=== Общие ===
Полное имя : Nevestka.1991.DVDRip.XviD.pca1962.avi
Формат : AVI
Описание формата : Audio Video Interleave
Профиль формата : OpenDML
Размер файла : 2.09 Гб
Длительность : 2ч 18мин
Общий битрейт : 2 154 кбит/сек
Програмное обеспечение : VirtualDubModRus 1.5.10.2 (build 2542/release)
Кодирующая библиотека : VirtualDubMod build 2542/release
=== Видео ===
ID (Идентификатор) : 0
Формат : MPEG-4 Visual
Профиль формата : Advanced Simple@L5
Параметр 'BVOP' : 1
Параметр 'QPel' : Нет
Параметр 'GMC' : No warppoints
Параметр 'Matrix' : Default (H.263)
Идентификатор кодека : XVID
Подпись кодека : XviD
Длительность : 2ч 18мин
Битрейт : 1623 кбит/сек
Ширина кадра : 640 пикселей
Высота кадра : 480 пикселей
Соотношение сторон : 4:3
Частота кадров : 23.976 кадров/сек
Цветовое пространство : YUV
Субдискретизация насыщенности : 4:2:0
Глубина (разрядность) : 8 bits
Тип развертки : Прогрессивная
Режим сжатия : С потерями
Бит/(пиксель*кадр) : 0.220
Размер потока : 1.57 Гб (75%)
Кодирующая библиотека : XviD 1.2.1 (UTC 2008-12-04)
=== Аудио 1 ===
ID (Идентификатор) : 1
Формат : AC-3
Описание формата : Audio Coding 3
Mode extension : CM (complete main)
Идентификатор кодека : 2000
Длительность : 2ч 18мин
Тип битрейта : Постоянный
Битрейт : 192 кбит/сек
Канал(ы) : 2 каналов
Расположение каналов : Front: L R
Частота дискретизации : 48.0 кГц
Глубина (разрядность) : 16 bits
Режим сжатия : С потерями
Размер потока : 190 Мб (9%)
Расположение потока : Split accross interleaves
Период чередования : 42 мс (1.00 video frame)
Предварительная загрузка : 500 мс
=== Аудио 2 ===
ID (Идентификатор) : 2
Формат : AC-3
Описание формата : Audio Coding 3
Mode extension : CM (complete main)
Идентификатор кодека : 2000
Длительность : 2ч 18мин
Тип битрейта : Постоянный
Битрейт : 320 кбит/сек
Канал(ы) : 6 каналов
Расположение каналов : Front: L C R, Side: L R, LFE
Частота дискретизации : 48.0 кГц
Глубина (разрядность) : 16 bits
Режим сжатия : С потерями
Размер потока : 317 Мб (15%)
Расположение потока : Split accross interleaves
Период чередования : 42 мс (1.00 video frame)
Предварительная загрузка : 500 мс

-
-

Скриншот c названием фильма

Скачать

Скачать торрент! Невестка / Bhabhi (Кишор Вьяс / Kishore Vyas) [1991, Индия, Драма, комедия, семейный, DVDRip] VO (Nastia) + Original + Sub Rus

Как скачивать? · Что такое торрент? · Рейтинг и ограничения

Сайт не распространяет и не хранит электронные версии произведений, а лишь предоставляет доступ к создаваемому пользователями каталогу ссылок на торрент-файлы, которые содержат только списки хеш-сумм

[Профиль] [ЛС]
Показать сообщения:    
Ответить на тему

Текущее время: Сегодня 06:34

Часовой пояс: GMT + 4



Вы не можете начинать темы
Вы не можете отвечать на сообщения
Вы не можете редактировать свои сообщения
Вы не можете удалять свои сообщения
Вы не можете голосовать в опросах
Вы не можете прикреплять файлы к сообщениям
Вы не можете скачивать файлы