Доктор Дулиттл 2 / Doctor Dolittle 2 / Dr. Dolittle 2 (Стив Карр / Steve Carr) [2001, США, комедия, семейный, фэнтези, мелодрама, HDTV 1080i] Dub

Ответить на тему
 
Автор Сообщение

user ®

Стаж: 7 лет 7 месяцев

Сообщений: 20008

Пост Пост: #1 от 15-Фев-2014 21:20

[Цитировать]

Доктор Дулиттл 2 / Doctor Dolittle 2 / Dr. Dolittle 2
Страна: США
Жанр: комедия, семейный, фэнтези, мелодрама
Год выпуска: 2001
Продолжительность: 01:19:42
Перевод: Профессиональный (дублированный)
Cубтитры: нет
Оригинальная аудиодорожка: нет
Режиссер: Стив Карр / Steve Carr
В ролях: Эдди Мёрфи, Кристен Уилсон, Рэйвен, Кайла Прэтт, Лиль Зейн, Дениз Дауз, Джеймс Эйври, Элэйн Тэйлор, Энди Рихтер, Кевин Поллак
Описание: Эдди Мерфи возвращается на экраны в качестве доктора, умеющего разговаривать с животными. Но теперь его четвероногим пациентам недостаточно приемов в больнице — им надо спасать свой лес от людей, которые уничтожают его. И кто им поможет? Конечно же, он — верный друг и защитник лесного народа...
Сэмпл: http://multi-up.com/951321
Тип релиза: HDTV 1080i
Контейнер: TS
Видео: AVC, 1920x1080 (16/9), 25.000 fps, 12.5 Mbps (0.242 bit/pixel)
Аудио: MP2, 48.0 KHz, 2 ch, 192 Kbps, CBR (Russian)

MediaInfo

Общее
Идентификатор : 3 (0x3)
Полное имя : M:\ЗАХВАТ С ТЮНЕРА\Доктор Дулиттл 2.TS
Формат : MPEG-TS
Размер файла : 7,62 Гбайт
Продолжительность : 1 ч. 19 м.
Режим общего битрейта : Переменный
Общий поток : 13,7 Мбит/сек
Видео
Идентификатор : 2141 (0x85D)
Идентификатор меню : 21004 (0x520C)
Формат : AVC
Формат/Информация : Advanced Video Codec
Профиль формата : Main@L4.0
Параметр CABAC формата : Да
Параметр ReFrames формата : 3 кадра
Идентификатор кодека : 27
Продолжительность : 1 ч. 19 м.
Битрейт : 12,8 Мбит/сек
Ширина : 1920 пикселей
Высота : 1080 пикселей
Соотношение сторон : 16:9
Частота кадров : 25,000 кадров/сек
Стандарт вещания : Component
Цветовое пространство : YUV
Субдискретизация насыщенности : 4:2:0
Битовая глубина : 8 бит
Тип развёртки : Чересстрочная
Порядок развёртки : Верхнее поле первое
Бит/(Пиксели*Кадры) : 0.247
Размер потока : 7,13 Гбайт (94%)
Основные цвета : BT.709
Характеристики трансфера : BT.709
Коэффициенты матрицы : BT.709
Аудио
Идентификатор : 2142 (0x85E)
Идентификатор меню : 21004 (0x520C)
Формат : MPEG Audio
Версия формата : Version 1
Профиль формата : Layer 2
Идентификатор кодека : 4
Продолжительность : 1 ч. 19 м.
Вид битрейта : Постоянный
Битрейт : 192 Кбит/сек
Каналы : 2 канала
Частота : 48,0 КГц
Метод сжатия : С потерями
Задержка видео : -17 мс.
Размер потока : 109 Мбайт (1%)
Язык : Russian

Скриншоты


Скачать

Скачать торрент!

Как скачивать? · Что такое торрент? · Рейтинг и ограничения

Сайт не распространяет и не хранит электронные версии произведений, а лишь предоставляет доступ к создаваемому пользователями каталогу ссылок на торрент-файлы, которые содержат только списки хеш-сумм

[Профиль] [ЛС]
Показать сообщения:    
Ответить на тему

Текущее время: Сегодня 05:11

Часовой пояс: GMT + 4



Вы не можете начинать темы
Вы не можете отвечать на сообщения
Вы не можете редактировать свои сообщения
Вы не можете удалять свои сообщения
Вы не можете голосовать в опросах
Вы не можете прикреплять файлы к сообщениям
Вы не можете скачивать файлы