Закон доблести / Act of Valor (Майк МакКой / Mike McCoy, Скотт Во / Scott Waugh) [2012, США, боевик, триллер, военный, BDRip 1080p] Dub + Original (Eng) + Sub (Rus)

Ответить на тему
 
Автор Сообщение

user ®

Стаж: 7 лет 7 месяцев

Сообщений: 20008

Пост Пост: #1 от 15-Фев-2014 18:10

[Цитировать]

Закон доблести / Act of Valor«Последний легкий день был вчера»- Страна: США
Жанр: боевик, триллер, военный
Год выпуска: 2012
Продолжительность: 01:49:30-Перевод: Профессиональный (полное дублирование) - Blu-ray Rus
Оригинальная аудиодорожка: English
Cубтитры: Russian (*.srt)
Навигация по главам: Присутствует-Режиссер: Майк МакКой / Mike McCoy, Скотт Во / Scott Waugh
В ролях: Розелин Санчез, Джейсон Коттл, Алекс Видов, Нестор Серрано, Эмилио Ривера, Айлса Маршалл, Гонсало Менендес, Димитар Маринов, Томас Розалес мл., Марк Маргулис-Описание: История о нелегких буднях элитной группы «морские котики», которым поручено вытащить из плена агентов ЦРУ. Выполняя задание, бойцы попутно уничтожают террористическую группу, в планы которой входила масштабная атака на США.-imdb.com: 6.50 (46 563)
kinopoisk.ru: 6.523 (4022)
-Качество видео: BDRip 1080p
Формат видео: MKV-Видео: 1920x1080 at 23.976 fps, x264@L4.1, 2pass, ~18000 kbps avg
Аудио №1: 48 kHz, AC3, 3/2 (L,C,R,l,r) + LFE ch, ~640.00 kbps avg | Профессиональный (полное дублирование) - Blu-ray Rus
Аудио №2: 48 kHz, DTS, 3/2 (L,C,R,l,r) + LFE ch, ~1536.00 kbps avg | English-

Дополнительно

by Skazhutin

MediaInfo

General
Unique ID : 233628054611090022508043473519765705077 (0xAFC3206A5415A589A60154DAB4F55175)
Complete name : D:\Фильмы\Act.of.Valor.2012.1080p.BluRay.Rus.Eng.HDCLUB-Skazhutin.mkv
Format : Matroska
Format version : Version 4 / Version 2
File size : 15.4 GiB
Duration : 1h 49mn
Overall bit rate : 20.1 Mbps
Movie name : Act of Valor (2012) - Release for HDCLUB by Skazhutin
Encoded date : UTC 2013-03-31 07:32:31
Writing application : mkvmerge v6.1.0 ('Old Devil') built on Mar 2 2013 14:32:37
Writing library : libebml v1.3.0 + libmatroska v1.4.0
Attachment : Yes / Yes
Video
ID : 1
Format : AVC
Format/Info : Advanced Video Codec
Format profile : High@L4.1
Format settings, CABAC : Yes
Format settings, ReFrames : 4 frames
Codec ID : V_MPEG4/ISO/AVC
Duration : 1h 49mn
Bit rate : 18.0 Mbps
Width : 1 920 pixels
Height : 1 080 pixels
Display aspect ratio : 16:9
Frame rate mode : Constant
Frame rate : 23.976 fps
Color space : YUV
Chroma subsampling : 4:2:0
Bit depth : 8 bits
Scan type : Progressive
Bits/(Pixel*Frame) : 0.362
Stream size : 13.4 GiB (87%)
Title : Release for HDCLUB
Writing library : x264 core 130 r2273kMod b3065e6
Encoding settings : cabac=1 / ref=4 / deblock=1:-3:-3 / analyse=0x3:0x113 / me=umh / subme=11 / psy=1 / fade_compensate=0.00 / psy_rd=1.00:0.00 / mixed_ref=1 / me_range=48 / chroma_me=1 / trellis=2 / 8x8dct=1 / cqm=0 / deadzone=21,11 / fast_pskip=0 / chroma_qp_offset=-2 / threads=12 / lookahead_threads=2 / sliced_threads=0 / nr=0 / decimate=0 / interlaced=0 / bluray_compat=0 / constrained_intra=0 / bframes=7 / b_pyramid=2 / b_adapt=2 / b_bias=0 / direct=3 / weightb=1 / open_gop=0 / weightp=2 / keyint=250 / keyint_min=23 / scenecut=40 / intra_refresh=0 / rc_lookahead=120 / rc=2pass / mbtree=1 / bitrate=18000 / ratetol=1.0 / qcomp=0.80 / qpmin=0 / qpmax=69 / qpstep=4 / cplxblur=20.0 / qblur=0.5 / vbv_maxrate=50000 / vbv_bufsize=62500 / nal_hrd=none / ip_ratio=1.30 / aq=1:0.80
Language : English
Default : Yes
Forced : No
Matrix coefficients : BT.709
Audio #1
ID : 2
Format : AC-3
Format/Info : Audio Coding 3
Mode extension : CM (complete main)
Format settings, Endianness : Big
Codec ID : A_AC3
Duration : 1h 49mn
Bit rate mode : Constant
Bit rate : 640 Kbps
Channel count : 6 channels
Channel positions : Front: L C R, Side: L R, LFE
Sampling rate : 48.0 KHz
Bit depth : 16 bits
Compression mode : Lossy
Stream size : 501 MiB (3%)
Title : AC3 5.1 @ 640 kbps - Dub
Language : Russian
Default : Yes
Forced : No
Audio #2
ID : 3
Format : DTS
Format/Info : Digital Theater Systems
Mode : 16
Format settings, Endianness : Big
Codec ID : A_DTS
Duration : 1h 49mn
Bit rate mode : Constant
Bit rate : 1 510 Kbps
Channel count : 6 channels
Channel positions : Front: L C R, Side: L R, LFE
Sampling rate : 48.0 KHz
Bit depth : 24 bits
Compression mode : Lossy
Stream size : 1.15 GiB (8%)
Title : DTS 5.1 @ 1536 kbps
Language : English
Default : No
Forced : No
Text #1
ID : 4
Format : UTF-8
Codec ID : S_TEXT/UTF8
Codec ID/Info : UTF-8 Plain Text
Language : Russian
Default : No
Forced : No
Text #2
ID : 5
Format : UTF-8
Codec ID : S_TEXT/UTF8
Codec ID/Info : UTF-8 Plain Text
Title : v2
Language : Russian
Default : No
Forced : No
Menu
00:00:00.000 : en:Chapter 1
00:04:09.165 : en:Chapter 2
00:07:58.895 : en:Chapter 3
00:13:09.997 : en:Chapter 4
00:16:47.006 : en:Chapter 5
00:22:23.258 : en:Chapter 6
00:26:31.631 : en:Chapter 7
00:30:12.143 : en:Chapter 8
00:35:33.756 : en:Chapter 9
00:41:14.305 : en:Chapter 10
00:46:31.622 : en:Chapter 11
00:50:43.999 : en:Chapter 12
00:55:18.815 : en:Chapter 13
01:00:06.603 : en:Chapter 14
01:07:15.573 : en:Chapter 15
01:14:25.002 : en:Chapter 16
01:21:47.277 : en:Chapter 17
01:31:53.132 : en:Chapter 18

Скриншоты

Скачать

Скачать торрент!

Как скачивать? · Что такое торрент? · Рейтинг и ограничения

Сайт не распространяет и не хранит электронные версии произведений, а лишь предоставляет доступ к создаваемому пользователями каталогу ссылок на торрент-файлы, которые содержат только списки хеш-сумм

[Профиль] [ЛС]
Показать сообщения:    
Ответить на тему

Текущее время: Сегодня 05:11

Часовой пояс: GMT + 4



Вы не можете начинать темы
Вы не можете отвечать на сообщения
Вы не можете редактировать свои сообщения
Вы не можете удалять свои сообщения
Вы не можете голосовать в опросах
Вы не можете прикреплять файлы к сообщениям
Вы не можете скачивать файлы