Огневушка - поскакушка (Михаил Шаров) [1976, Сказка, TVRip]

Ответить на тему
 
Автор Сообщение

user ®

Стаж: 7 лет 7 месяцев

Сообщений: 20008

Пост Пост: #1 от 15-Фев-2014 15:00

[Цитировать]

Огневушка - поскакушка
Жанр: Сказка
Год выпуска: 1976
Продолжительность: 00:29:24
Режиссёр: Михаил Шаров
В ролях: Марина Московских, Слава Белоусов, Е. Агуров, А. Иноземцев, Л. Грибкова, Л. Балуев, П. Федосеев
Описание: Тв-экранизация рассказа Павла Бажова.
Доп. информация: раздача начнется после проверки
Качество видео: TVRip
Формат видео: AVI
Видео: XviD 1557 Кбит/с 640x480 25 fps
Аудио: MP3 1 ch 96 Кбит/с 48khz

MediaInfo

General
Complete name : D:\Огневушка - поскакушка (1976).avi
Format : AVI
Format/Info : Audio Video Interleave
File size : 350 MiB
Duration : 29mn 24s
Overall bit rate : 1 663 Kbps
Writing application : VirtualDubMod 1.5.10.3 | www.virtualdub-fr.org || (build 2550/release)
Writing library : VirtualDubMod build 2550/release
Video
ID : 0
Format : MPEG-4 Visual
Format profile : Advanced Simple@L5
Format settings, BVOP : 1
Format settings, QPel : No
Format settings, GMC : No warppoints
Format settings, Matrix : Default (H.263)
Codec ID : XVID
Codec ID/Hint : XviD
Duration : 29mn 24s
Bit rate : 1 557 Kbps
Width : 640 pixels
Height : 480 pixels
Display aspect ratio : 4:3
Frame rate : 25.000 fps
Color space : YUV
Chroma subsampling : 4:2:0
Bit depth : 8 bits
Scan type : Progressive
Compression mode : Lossy
Bits/(Pixel*Frame) : 0.203
Stream size : 327 MiB (94%)
Writing library : XviD 1.2.1 (UTC 2008-12-04)
Audio
ID : 1
Format : MPEG Audio
Format version : Version 1
Format profile : Layer 3
Codec ID : 55
Codec ID/Hint : MP3
Duration : 29mn 23s
Bit rate mode : Constant
Bit rate : 96.0 Kbps
Channel count : 1 channel
Sampling rate : 48.0 KHz
Compression mode : Lossy
Stream size : 20.2 MiB (6%)
Alignment : Aligned on interleaves
Interleave, duration : 40 ms (1.00 video frame)
Interleave, preload duration : 504 ms
Writing library : LAME3.99r
Encoding settings : -m m -V 4 -q 2 -lowpass 20.5 -b 96

Скриншоты

Скачать

Скачать торрент!

Как скачивать? · Что такое торрент? · Рейтинг и ограничения

Сайт не распространяет и не хранит электронные версии произведений, а лишь предоставляет доступ к создаваемому пользователями каталогу ссылок на торрент-файлы, которые содержат только списки хеш-сумм

[Профиль] [ЛС]
Показать сообщения:    
Ответить на тему

Текущее время: Сегодня 10:51

Часовой пояс: GMT + 4



Вы не можете начинать темы
Вы не можете отвечать на сообщения
Вы не можете редактировать свои сообщения
Вы не можете удалять свои сообщения
Вы не можете голосовать в опросах
Вы не можете прикреплять файлы к сообщениям
Вы не можете скачивать файлы