Полицейская история 2013 / Jing cha gu shi 2013 (Дин Шэн / Ding Sheng) [2013, Китай, Гонконг, криминал, драма, триллер, боевик, HDTVRip] DVO (Green Tea) + Sub

Ответить на тему
 
Автор Сообщение

user ®

Стаж: 13 лет

Сообщений: 15071

Пост Пост: #1 от 14-Фев-2014 20:55

[Цитировать]

Полицейская история 2013 / Jing cha gu shi 2013- Страна: Китай, Гонконг, China Vision Group, Wanda Media Co.
Жанр: криминал, драма, триллер, боевик
Год выпуска: 2013
Продолжительность: 01:46:21-Перевод: Любительский (двухголосый закадровый) [Дмитрий Познанский и Елена Егорова] [GREEN TEA]
Cубтитры: китайские
Режиссер: Дин Шэн / Ding Sheng-В ролях: Джеки Чан, Лю Е, Тянь Цзин, Вэй На, Юй Жун Гуан, Александр Байли, Макс Хуан, Лью Пэйци, Ивэй Лау, Джеймс Лоджа-Описание: История начинается с того, что посетители паба оказываются взятыми в заложники. Среди посетителей есть офицер полиции Вэнь Чжун и его непослушная дочь Мяомяо. Человек, удерживающий всех в заложниках — владелец паба, который таким образом пытается добиться освобождения из тюрьмы одного преступника…-IMDB | КиноПоиск | Sample-Качество видео: HDTVRip
Формат видео: AVI-Видео: XviD, 720x304, 25.000 fps, 1645 Кбит/с
Аудио: AC3, 48.0 KHz, 2ch, 192 Кбит/с
Формат субтитров: hardsub (неотключаемые)-

MediaInfo

C:\Other\Policejskaja.istorija.4.2013.HDTVRip.avi
General
Complete name : C:\Other\Policejskaja.istorija.4.2013.HDTVRip.avi
Format : AVI
Format/Info : Audio Video Interleave
File size : 1.37 GiB
Duration : 1h 46mn
Overall bit rate : 1 847 Kbps
Writing application : VirtualDubMod 1.5.10.3 | www.virtualdub-fr.org || (build 2550/release)
Writing library : VirtualDubMod build 2550/release
Video #0
ID : 0
Format : MPEG-4 Visual
Format profile : Advanced Simple@L5
Format settings, BVOP : 2
Format settings, QPel : No
Format settings, GMC : No warppoints
Format settings, Matrix : Custom
Codec ID : XVID
Codec ID/Hint : XviD
Duration : 1h 46mn
Bit rate : 1 645 Kbps
Width : 720 pixels
Height : 304 pixels
Display aspect ratio : 2.35:1
Frame rate : 25.000 fps
Color space : YUV
Chroma subsampling : 4:2:0
Bit depth : 8 bits
Scan type : Progressive
Compression mode : Lossy
Bits/(Pixel*Frame) : 0.301
Stream size : 1.22 GiB (89%)
Writing library : XviD 73
Audio #1
ID : 1
Format : AC-3
Format/Info : Audio Coding 3
Mode extension : CM (complete main)
Codec ID : 2000
Duration : 1h 46mn
Bit rate mode : Constant
Bit rate : 192 Kbps
Channel(s) : 2 channels
Channel positions : Front: L R
Sampling rate : 48.0 KHz
Bit depth : 16 bits
Compression mode : Lossy
Stream size : 146 MiB (10%)
Alignment : Split accross interleaves
Interleave, duration : 40 ms (1.00 video frame)
Interleave, preload duration : 500 ms

Скриншот c названием фильма

Скриншоты

Скачать

Скачать торрент! Полицейская история 2013 / Jing cha gu shi 2013 (Дин Шэн / Ding Sheng) [2013, Китай, Гонконг, криминал, драма, триллер, боевик, HDTVRip] DVO (Green Tea) + Sub

Как скачивать? · Что такое торрент? · Рейтинг и ограничения

Сайт не распространяет и не хранит электронные версии произведений, а лишь предоставляет доступ к создаваемому пользователями каталогу ссылок на торрент-файлы, которые содержат только списки хеш-сумм

[Профиль] [ЛС]
Показать сообщения:    
Ответить на тему

Текущее время: Сегодня 16:48

Часовой пояс: GMT + 4



Вы не можете начинать темы
Вы не можете отвечать на сообщения
Вы не можете редактировать свои сообщения
Вы не можете удалять свои сообщения
Вы не можете голосовать в опросах
Вы не можете прикреплять файлы к сообщениям
Вы не можете скачивать файлы