Ла Бамба / La Bamba (Луис Валдез / Luis Valdez) [1987, США, Драма, биография, музыка, WEB-DL 1080p] MVO (СТС) + Original Eng + Sub (Rus)

Ответить на тему
 
Автор Сообщение

user ®

Стаж: 7 лет 7 месяцев

Сообщений: 20008

Пост Пост: #1 от 14-Фев-2014 20:55

[Цитировать]

Ла Бамба / La Bamba
-Страна: США
Жанр: Драма, биография, музыка
Год выпуска: 1987
Продолжительность: 01:48:32-Перевод: Профессиональный (многоголосый закадровый) [СТС]
Оригинальная аудиодорожка: Английский
Cубтитры: Русские-Режиссер: Луис Валдез / Luis Valdez-В ролях: Лу Даймонд Филлипс, Эсай Моралес, Розанна ДеСото, Элизабет Пенья, Даниэль фон Цернек, Джо Пантольяно, Рик Деес, Маршалл Креншоу, Ховард Хантсберри, Брайан Сетцер-Описание: Жизнь звезды рок-н-ролла Ричи Валенса была трагически короткой, но миллионы людей сохранили память о нем. В конце 50-х он заставил броситься в пляс всю Америку, а самые известные его хиты «Ла Бамба» и «Донна» до сих пор зажигают сердца людей и не дают сидеть на месте… Простой работник фермы Ричи Валенс был одержим музыкой. Все его мечты осуществлялись. Его ждала головокружительная карьера, но жизнь юноши оборвалась, когда ему было всего 17 лет…-Sample-Качество видео: WEB-DL 1080p
Формат видео: MKV-Видео: 1912x1072 (1.78:1), 23.976 fps, AVC, 4980 Kbps
Аудио: 48 kHz, AC3 Dolby Digital, 2/0 ch, 192.00 kbps
Аудио 2: 48 kHz, AC3 Dolby Digital, 3/2 ch, 384.00 kbps

MediaInfo

Unique ID : 250793335777287900649835835586070329750 (0xBCAD0A1E279A281EA9CC3986EC5E3996)
Complete name : E:\LaBamba.1987.WEB-DL.1080p.H264.AC3.mkv
Format : Matroska
Format version : Version 4 / Version 2
File size : 4.30 GiB
Duration : 1h 48mn
Overall bit rate : 5 669 Kbps
Encoded date : UTC 2014-02-12 18:22:10
Writing application : mkvmerge v6.5.0 ('Isn't she lovely') built on Oct 20 2013 12:50:05
Writing library : libebml v1.3.0 + libmatroska v1.4.1
Video
ID : 1
Format : AVC
Format/Info : Advanced Video Codec
Format profile : High@L4.0
Format settings, CABAC : Yes
Format settings, ReFrames : 4 frames
Codec ID : V_MPEG4/ISO/AVC
Duration : 1h 48mn
Bit rate : 4 980 Kbps
Width : 1 912 pixels
Height : 1 072 pixels
Display aspect ratio : 16:9
Frame rate mode : Constant
Frame rate : 23.976 fps
Color space : YUV
Chroma subsampling : 4:2:0
Bit depth : 8 bits
Scan type : Progressive
Bits/(Pixel*Frame) : 0.101
Stream size : 3.78 GiB (88%)
Title : Video
Language : English
Default : Yes
Forced : No
Color primaries : BT.709
Transfer characteristics : BT.709
Matrix coefficients : BT.709
Audio #1
ID : 2
Format : AC-3
Format/Info : Audio Coding 3
Mode extension : CM (complete main)
Format settings, Endianness : Big
Codec ID : A_AC3
Duration : 1h 48mn
Bit rate mode : Constant
Bit rate : 192 Kbps
Channel count : 2 channels
Channel positions : Front: L R
Sampling rate : 48.0 KHz
Bit depth : 16 bits
Compression mode : Lossy
Stream size : 149 MiB (3%)
Title : AC3 Многоголосый закадровый (СТС)
Language : Russian
Default : Yes
Forced : No
Audio #2
ID : 3
Format : AC-3
Format/Info : Audio Coding 3
Mode extension : CM (complete main)
Format settings, Endianness : Big
Codec ID : A_AC3
Duration : 1h 48mn
Bit rate mode : Constant
Bit rate : 384 Kbps
Channel count : 6 channels
Channel positions : Front: L C R, Side: L R, LFE
Sampling rate : 48.0 KHz
Bit depth : 16 bits
Compression mode : Lossy
Stream size : 298 MiB (7%)
Title : AC3
Language : English
Default : No
Forced : No
Text
ID : 4
Format : UTF-8
Codec ID : S_TEXT/UTF8
Codec ID/Info : UTF-8 Plain Text
Language : Russian
Default : Yes
Forced : No
Menu
00:00:00.000 : en:Start
00:02:23.000 : en:Opening credits
00:04:06.000 : en:The Valenzuela family
00:05:22.000 : en:Richie & Bob
00:08:09.000 : en:Bob and Rosie
00:13:18.000 : en:Donna
00:15:39.000 : en:"Rip It Up"
00:24:21.000 : en:Garage party
00:29:06.000 : en:Cowboy Palace
00:36:08.000 : en:"Ooh! My Head"
00:37:51.000 : en:"Framed"
00:40:32.000 : en:A drive with Donna
00:43:05.000 : en:Bob Keene
00:45:41.000 : en:"This I Swear"
00:48:07.000 : en:Telling his dream
00:51:23.000 : en:"Come On, Let's Go"
00:53:51.000 : en:Richie Valens
01:05:01.000 : en:"La Bamba" (Traditional)
01:11:08.000 : en:"Donna"
01:14:49.000 : en:Dream car
01:17:40.000 : en:American Bandstand
01:22:56.000 : en:"Summertime Blues"
01:24:47.000 : en:"Lonely Teardrops"
01:27:09.000 : en:"La Bamba"
01:35:54.000 : en:"Crying, Waiting, Hoping"
01:39:22.000 : en:Buddy Holly Airliner
01:41:01.000 : en:The day the music died
01:44:37.000 : en:End Credits

Скриншоты

Скачать

Скачать торрент!

Как скачивать? · Что такое торрент? · Рейтинг и ограничения

Сайт не распространяет и не хранит электронные версии произведений, а лишь предоставляет доступ к создаваемому пользователями каталогу ссылок на торрент-файлы, которые содержат только списки хеш-сумм

[Профиль] [ЛС]
Показать сообщения:    
Ответить на тему

Текущее время: Сегодня 03:15

Часовой пояс: GMT + 4



Вы не можете начинать темы
Вы не можете отвечать на сообщения
Вы не можете редактировать свои сообщения
Вы не можете удалять свои сообщения
Вы не можете голосовать в опросах
Вы не можете прикреплять файлы к сообщениям
Вы не можете скачивать файлы