Все мужчины - братья / All Men Are Brothers / Seven Soldiers of Kung Fu / Dang kou zhi (Чжан Чэ / Chang Cheh, У Ма / Wu Ma) [1975, Гонконг, боевые искусства, DVDRip] VO (Shangu)

Ответить на тему
 
Автор Сообщение

user ®

Стаж: 13 лет

Сообщений: 15071

Пост Пост: #1 от 14-Фев-2014 14:55

[Цитировать]

Все мужчины - братья / All Men Are Brothers / Seven Soldiers of Kung Fu / Dang kou zhi
Страна: Гонконг
Жанр: боевые искусства
Год выпуска: 1975
Продолжительность: 01:41:16
Перевод: Одноголосый закадровый Shangu
Cубтитры: нет
Режиссер: Чжан Чэ / Chang Cheh, У Ма / Wu Ma
В ролях: Дэвид Чианг, Фань Мэйшэн, Чен Куан-Тай, Ван Чжун, Дэнни Ли, Ван Гуанъюй, Юй Фэн, Ти Лун, Чжу Му, Тин Чин, Тун Линь, Боло Йен, Лю Ган, Ван Цин, Чжан Ян
Описание: Экранизация нескольких глав из знаменитого шедевра китайской литературы "Речные заводи", основанного на реальных исторических событиях, продолжение "Речные заводи".
Ян Цин (Дэвид Чианг) добивается аудиенции у императора, чтобы попросить его о помиловании 108 воинов, входящих в незаконную дружину Лян Шан – правитель соглашается объявить им амнистию, если те подавят восстание, поднятое против его власти генералом Фанг Ла. Войска Фан Ла закрепились в неприступной крепости на воде и если Ян Цин и его собратья по оружию хотят занять ее, им необходимо действовать не только снаружи, но и изнутри…
Благодарность: За исходник благодарность выражается efremaka (Montana).
Качество видео: DVDRip
Формат видео: AVI
Видео: 720x304 (2.37:1), 25 fps, XviD build 50 ~1869 kbps avg, 0.34 bit/pixel
Аудио: 48 kHz, AC3 Dolby Digital, 2/0 (L,R) ch, ~192 kbps

MediaInfo

Format : AVI
Format/Info : Audio Video Interleave
File size : 1,47 Гбайт
Duration : 1 ч. 41 м.
Overall bit rate : 2072 Кбит/сек
Writing application : VirtualDubMod 1.5.10.3 | www.virtualdub-fr.org || (build 2550/release)
Writing library : VirtualDubMod build 2550/release
Видео
ID : 0
Format : MPEG-4 Visual
Format profile : Advanced Simple@L5
Format settings, BVOP : 2
Format settings, QPel : Нет
Format settings, GMC : Без точки перехода
Format settings, Matrix : Default (MPEG)
Codec ID : XVID
Codec ID/Hint : XviD
Duration : 1 ч. 41 м.
Bit rate : 1870 Кбит/сек
Width : 720 пикселей
Height : 304 пикселя
Display aspect ratio : 2,35:1
Frame rate : 25,000 кадров/сек
Color space : YUV
Chroma subsampling : 4:2:0
Bit depth : 8 бит
Scan type : Прогрессивная
Compression mode : С потерями
Bits/(Pixel*Frame) : 0.342
Stream size : 1,32 Гбайт (90%)
Writing library : XviD 1.2.1 (UTC 2008-12-04)
Аудио
ID : 1
Format : AC-3
Format/Info : Audio Coding 3
Mode extension : CM (complete main)
Format settings, Endianness : Big
Codec ID : 2000
Duration : 1 ч. 41 м.
Bit rate mode : Постоянный
Bit rate : 192 Кбит/сек
Channel(s) : 2 канала
Channel positions : Front: L R
Sampling rate : 48,0 КГц
Bit depth : 16 бит
Compression mode : С потерями
Stream size : 139 Мбайт (9%)
Alignment : Разделение по промежуткам
Interleave, duration : 40 мс. (1,00 видеокадр)
Interleave, preload duration : 500 мс.

Скриншот c названием фильма

Скриншоты

Скачать

Скачать торрент! Все мужчины - братья / All Men Are Brothers / Seven Soldiers of Kung Fu / Dang kou zhi (Чжан Чэ / Chang Cheh, У Ма / Wu Ma) [1975, Гонконг, боевые искусства, DVDRip] VO (Shangu)

Как скачивать? · Что такое торрент? · Рейтинг и ограничения

Сайт не распространяет и не хранит электронные версии произведений, а лишь предоставляет доступ к создаваемому пользователями каталогу ссылок на торрент-файлы, которые содержат только списки хеш-сумм

[Профиль] [ЛС]
Показать сообщения:    
Ответить на тему

Текущее время: Сегодня 17:17

Часовой пояс: GMT + 4



Вы не можете начинать темы
Вы не можете отвечать на сообщения
Вы не можете редактировать свои сообщения
Вы не можете удалять свои сообщения
Вы не можете голосовать в опросах
Вы не можете прикреплять файлы к сообщениям
Вы не можете скачивать файлы