Прятки / Soombakkokjil / Hide and Seek (Ким Ый Сун/ Kim Eui-Sung) [2013, Южная Корея, Триллер, DVDRip] DVO

Ответить на тему
 
Автор Сообщение

user ®

Стаж: 11 лет

Сообщений: 15151

Пост Пост: #1 от 14-Фев-2014 14:55

[Цитировать]

Прятки / Soombakkokjil / Hide and Seek
Страна: Южная Корея
Жанр: Триллер
Год выпуска: 2013
Продолжительность: 01:47:23
Перевод: Любительский (двухголосый закадровый) DeadSno & den904
Cубтитры: нет
Режиссер: Ким Ый Сун/ Kim Eui-Sung
В ролях: Сон Хён Чжу , Мун Чжон Хи , Чон Ми Сон
Описание: Сун-Су — успешный бизнесмен. Он живет в шикарной квартире со своей семьей, но у него есть секрет, касающийся его старшего брата, а также он страдает от боязни микробов. Однажды Сун-Су узнает, что его старший брат пропал
Сэмпл: http://multi-up.com/950719
Качество видео: DVDRip
Формат видео: AVI
Видео: 720x304, 25 fps, XviD build 50, 1686 kbps avg, 0.31 bit/pixel
Аудио: 48 kHz, MPEG Layer 3,2 ch, 128.00 kbps avg

MediaInfo

Общее
Полное имя : E:\Filmi\Soombakkokjil - Hide and Seek 2013.avi
Формат : AVI
Формат/Информация : Audio Video Interleave
Размер файла : 1,37 Гбайт
Продолжительность : 1 ч. 47 м.
Общий поток : 1825 Кбит/сек
Программа кодирования : VirtualDubMod 1.5.10.3 | www.virtualdub-fr.org || (build 2550/release)
Библиотека кодирования : VirtualDubMod build 2550/release
Видео
Идентификатор : 0
Формат : MPEG-4 Visual
Профиль формата : Advanced Simple@L5
Параметр BVOP формата : 2
Параметр QPel формата : Нет
Параметр GMC формата : Без точки перехода
Параметр матрицы формата : Default (H.263)
Идентификатор кодека : XVID
Идентификатор кодека/Подсказка : XviD
Продолжительность : 1 ч. 47 м.
Битрейт : 1687 Кбит/сек
Ширина : 720 пикселей
Высота : 304 пикселя
Соотношение сторон : 2,35:1
Частота кадров : 25,000 кадров/сек
Цветовое пространство : YUV
Субдискретизация насыщенности : 4:2:0
Битовая глубина : 8 бит
Тип развёртки : Прогрессивная
Метод сжатия : С потерями
Бит/(Пиксели*Кадры) : 0.308
Размер потока : 1,27 Гбайт (92%)
Библиотека кодирования : XviD 1.2.1 (UTC 2008-12-04)
Аудио
Идентификатор : 1
Формат : MPEG Audio
Версия формата : Version 1
Профиль формата : Layer 3
Идентификатор кодека : 55
Идентификатор кодека/Подсказка : MP3
Продолжительность : 1 ч. 47 м.
Вид битрейта : Постоянный
Битрейт : 128 Кбит/сек
Каналы : 2 канала
Частота : 48,0 КГц
Метод сжатия : С потерями
Размер потока : 98,3 Мбайт (7%)
Выравнивание : Соединение по промежуткам
Продолжительность промежутка : 40 мс. (1,00 видеокадр)
Время предзагрузки промежутка : 504 мс.
Библиотека кодирования : LAME3.99r
Настройки программы : -m s -V 4 -q 2 -lowpass 17 -b 128

Скриншот c названием фильма

Скриншоты

Скачать

Скачать торрент! Прятки / Soombakkokjil / Hide and Seek (Ким Ый Сун/ Kim Eui-Sung) [2013, Южная Корея, Триллер, DVDRip] DVO

Как скачивать? · Что такое торрент? · Рейтинг и ограничения

Сайт не распространяет и не хранит электронные версии произведений, а лишь предоставляет доступ к создаваемому пользователями каталогу ссылок на торрент-файлы, которые содержат только списки хеш-сумм

[Профиль] [ЛС]
Показать сообщения:    
Ответить на тему

Текущее время: Сегодня 07:59

Часовой пояс: GMT + 4



Вы не можете начинать темы
Вы не можете отвечать на сообщения
Вы не можете редактировать свои сообщения
Вы не можете удалять свои сообщения
Вы не можете голосовать в опросах
Вы не можете прикреплять файлы к сообщениям
Вы не можете скачивать файлы