Речные заводи / The Water Margin / Seven Blows of the Dragon / Shui hu zhuan (Чжан Чэ / Chang Cheh) [1972, Гонконг, боевые искусства, DVDRip] VO (efremaka)

Ответить на тему
 
Автор Сообщение

user ®

Стаж: 13 лет

Сообщений: 15071

Пост Пост: #1 от 13-Фев-2014 05:25

[Цитировать]

Речные заводи / The Water Margin / Seven Blows of the Dragon / Shui hu zhuan
Страна: Гонконг
Жанр: боевые искусства
Год выпуска: 1972
Продолжительность: 01:59:45
Перевод: Одноголосый закадровый efremaka
Cубтитры: нет
Режиссер: Чжан Чэ / Chang Cheh
В ролях: Дэвид Чианг, Тамба Тецуро, Курозава Тошидзо, Тун Линь, Ку Фэн, Цзинь Фэн, Юэ Хуа, Ван Чжун, Ти Лун, Лили Хо, Фань Мэйшэн, У Ма, Чжэн Лэй, Пол Чун, Чен Куан-Тай, Дэнни Ли, У Чицинь, Ли Хэн, Лю Дань
Описание: Экранизация нескольких глав из знаменитого шедевра китайской литературы "Речные заводи", основанного на реальных исторических событиях. Герои из Лян Шана по воле судьбы ставшие разбойниками борятся с предателями и продажными чиновниками, объявившими их вне закона. В основу сюжета романа положен исторический эпизод народного восстания начала 12 в. Это роман о приключениях 108 преступников, которые объединяются в отряд на горе Ляншань, находившуюся среди речных плавней (отсюда название романа), и ведут победоносную борьбу с правительственными войсками. Кроме описания боевых действий, роман изобилует описаниями хмельных застолий, повествует о боевом товариществе, о человеческих качествах – жестокости, хитрости, преданности, – и волшебстве.
Благодарность: За перевод и озвучивание благодарность выражается efremaka (Montana).
Качество видео: DVDRip
Формат видео: AVI
Видео: 720x304 (2.37:1), 25 fps, XviD build 50 ~1551 kbps avg, 0.28 bit/pixel
Аудио: 48 kHz, AC3 Dolby Digital, 2/0 (L,R) ch, ~192 kbps

MediaInfo

Format : AVI
Format/Info : Audio Video Interleave
File size : 1,47 Гбайт
Duration : 1 ч. 59 м.
Overall bit rate : 1754 Кбит/сек
Writing application : VirtualDubMod 1.5.10.3 | www.virtualdub-fr.org || (build 2550/release)
Writing library : VirtualDubMod build 2550/release
Видео
ID : 0
Format : MPEG-4 Visual
Format profile : Advanced Simple@L5
Format settings, BVOP : 2
Format settings, QPel : Нет
Format settings, GMC : Без точки перехода
Format settings, Matrix : Default (MPEG)
Codec ID : XVID
Codec ID/Hint : XviD
Duration : 1 ч. 59 м.
Bit rate : 1552 Кбит/сек
Width : 720 пикселей
Height : 304 пикселя
Display aspect ratio : 2,35:1
Frame rate : 25,000 кадров/сек
Color space : YUV
Chroma subsampling : 4:2:0
Bit depth : 8 бит
Scan type : Прогрессивная
Compression mode : С потерями
Bits/(Pixel*Frame) : 0.284
Stream size : 1,30 Гбайт (88%)
Writing library : XviD 1.2.1 (UTC 2008-12-04)
Аудио
ID : 1
Format : AC-3
Format/Info : Audio Coding 3
Mode extension : CM (complete main)
Format settings, Endianness : Big
Codec ID : 2000
Duration : 1 ч. 59 м.
Bit rate mode : Постоянный
Bit rate : 192 Кбит/сек
Channel(s) : 2 канала
Channel positions : Front: L R
Sampling rate : 48,0 КГц
Bit depth : 16 бит
Compression mode : С потерями
Stream size : 164 Мбайт (11%)
Alignment : Разделение по промежуткам
Interleave, duration : 40 мс. (1,00 видеокадр)
Interleave, preload duration : 500 мс.

Скриншот c названием фильма

Скриншоты

Скачать

Скачать торрент! Речные заводи / The Water Margin / Seven Blows of the Dragon / Shui hu zhuan (Чжан Чэ / Chang Cheh) [1972, Гонконг, боевые искусства, DVDRip] VO (efremaka)

Как скачивать? · Что такое торрент? · Рейтинг и ограничения

Сайт не распространяет и не хранит электронные версии произведений, а лишь предоставляет доступ к создаваемому пользователями каталогу ссылок на торрент-файлы, которые содержат только списки хеш-сумм

[Профиль] [ЛС]
Показать сообщения:    
Ответить на тему

Текущее время: Сегодня 11:52

Часовой пояс: GMT + 4



Вы не можете начинать темы
Вы не можете отвечать на сообщения
Вы не можете редактировать свои сообщения
Вы не можете удалять свои сообщения
Вы не можете голосовать в опросах
Вы не можете прикреплять файлы к сообщениям
Вы не можете скачивать файлы