Лихорадка: Пациент Зеро / Cabin Fever: Patient Zero (Кааре Эндрюс / Kaare Andrews) [2014, США, ужасы, BDRip-AVC] DVO + Original (Eng)

Ответить на тему
 
Автор Сообщение

user ®

Стаж: 7 лет 7 месяцев

Сообщений: 20008

Пост Пост: #1 от 13-Фев-2014 05:25

[Цитировать]

Лихорадка: Пациент Зеро / Cabin Fever: Patient Zero
Страна: США
Жанр: ужасы
Год выпуска: 2014
Продолжительность: 01:34:50
Перевод: Любительский (двухголосый закадровый) - den904 & DeadSno, перевод - ОХ! Студия
Оригинальная аудиодорожка: английский
Cубтитры: нет-Режиссер: Кааре Эндрюс / Kaare Andrews
В ролях: Шон Эстин (Porter), Карри Грэм (Dr. Edwards), Райан Доноху (Dobbs), Брандо Итон (Josh), Джиллиан Мюррэй (Penny), Митч Райан (Marcus), Солли Дюран (Camila), Лидия Хёрст (Bridget), Клодетт Лали (Kate), Эрнесто Баез (Rodriguez)-Описание: Молодая компания отправляется на Карибские острова, чтобы оттянуться перед свадьбой одного из друзей. Но на берегу лазурного океана, посреди вечного лета и райского блаженства ребята обнаруживают очаг смертоносной болезни… Вскоре начинается отсчет жертв… Удастся ли кому-нибудь выжить?-СЭМПЛ
Тип релиза: BDRip-AVC
Исходник: Cabin.Fever.Patient.Zero.2014.UNCUT.1080p.BluRay.AVC.DTS-HD.MA.7.1-PublicHD
Контейнер: MKV
Видео: 1152x480p / 23.976 fps / 2.40:1 / High Profile 4.1 / AVC / ~ 2398 Kbps
Аудио 1: AC3 / 448 Kbps / 5.1 / 48 kHz / Russian / DVO
Аудио 2: AC3 / 448 Kbps / 5.1 / 48 kHz / English / original-IMDB * КиноПоиск

MediaInfo / x264 log

General
Complete name : Cabin.Fever.Patient.Zero.2014.BDRip-AVC.DVO.mkv
Format : Matroska
Format version : Version 2
File size : 2.18 GiB
Duration : 1h 34mn
Overall bit rate : 3 296 Kbps
Encoded date : UTC 2014-02-12 14:16:27
Writing application : mkvmerge v5.8.0 ('No Sleep / Pillow') built on Sep 2 2012 15:37:04
Writing library : libebml v1.2.3 + libmatroska v1.3.0
Video
ID : 1
Format : AVC
Format/Info : Advanced Video Codec
Format profile : High@L4.1
Format settings, CABAC : Yes
Format settings, ReFrames : 12 frames
Codec ID : V_MPEG4/ISO/AVC
Duration : 1h 34mn
Bit rate : 2 398 Kbps
Width : 1 152 pixels
Height : 480 pixels
Display aspect ratio : 2.40:1
Frame rate mode : Constant
Frame rate : 23.976 fps
Color space : YUV
Chroma subsampling : 4:2:0
Bit depth : 8 bits
Scan type : Progressive
Bits/(Pixel*Frame) : 0.181
Stream size : 1.55 GiB (71%)
Title : Cabin Fever 2014
Writing library : x264 core 135 r2345 f0c1c53
Encoding settings : cabac=1 / ref=12 / deblock=1:-3:-3 / analyse=0x3:0x113 / me=umh / subme=11 / psy=1 / psy_rd=1.10:0.00 / mixed_ref=1 / me_range=24 / chroma_me=1 / trellis=2 / 8x8dct=1 / cqm=0 / deadzone=21,11 / fast_pskip=1 / chroma_qp_offset=-2 / threads=6 / lookahead_threads=1 / sliced_threads=0 / nr=0 / decimate=1 / interlaced=0 / bluray_compat=0 / constrained_intra=0 / bframes=9 / b_pyramid=2 / b_adapt=2 / b_bias=0 / direct=3 / weightb=1 / open_gop=0 / weightp=2 / keyint=250 / keyint_min=23 / scenecut=40 / intra_refresh=0 / rc_lookahead=60 / rc=2pass / mbtree=1 / bitrate=2398 / ratetol=1.0 / qcomp=0.60 / qpmin=0 / qpmax=69 / qpstep=4 / cplxblur=20.0 / qblur=0.5 / ip_ratio=1.40 / aq=1:0.90
Default : Yes
Forced : No
Audio #1
ID : 2
Format : AC-3
Format/Info : Audio Coding 3
Mode extension : CM (complete main)
Format settings, Endianness : Big
Codec ID : A_AC3
Duration : 1h 34mn
Bit rate mode : Constant
Bit rate : 448 Kbps
Channel(s) : 6 channels
Channel positions : Front: L C R, Side: L R, LFE
Sampling rate : 48.0 KHz
Bit depth : 16 bits
Compression mode : Lossy
Stream size : 304 MiB (14%)
Title : RUS AC3 448 Kbps 6ch DVO DeadSno & den904
Language : Russian
Default : Yes
Forced : No
Audio #2
ID : 3
Format : AC-3
Format/Info : Audio Coding 3
Mode extension : CM (complete main)
Format settings, Endianness : Big
Codec ID : A_AC3
Duration : 1h 34mn
Bit rate mode : Constant
Bit rate : 448 Kbps
Channel(s) : 6 channels
Channel positions : Front: L C R, Side: L R, LFE
Sampling rate : 48.0 KHz
Bit depth : 16 bits
Compression mode : Lossy
Stream size : 304 MiB (14%)
Title : ENG AC3 448 Kbps 6ch original
Language : English
Default : No
Forced : No
Menu
00:00:00.000 : :Chapter 01
00:06:05.948 : :Chapter 02
00:13:14.001 : :Chapter 03
00:19:10.941 : :Chapter 04
00:31:37.020 : :Chapter 05
00:44:44.973 : :Chapter 06
00:51:47.979 : :Chapter 07
01:01:09.582 : :Chapter 08
01:11:24.363 : :Chapter 09
01:18:23.907 : :Chapter 10
01:27:55.937 : :Chapter 11
01:31:44.957 : :Chapter 12-x264 [info]: frame I:903 Avg QP:14.58 size: 73503
x264 [info]: frame P:32495 Avg QP:18.00 size: 25504
x264 [info]: frame B:103028 Avg QP:21.19 size: 7867
x264 [info]: consecutive B-frames: 2.4% 3.6% 12.4% 24.9% 20.5% 29.7% 3.8% 0.8% 0.8% 1.1%

Скриншот с названием

Скриншоты




Скачать

Скачать торрент!

Как скачивать? · Что такое торрент? · Рейтинг и ограничения

Сайт не распространяет и не хранит электронные версии произведений, а лишь предоставляет доступ к создаваемому пользователями каталогу ссылок на торрент-файлы, которые содержат только списки хеш-сумм

[Профиль] [ЛС]
Показать сообщения:    
Ответить на тему

Текущее время: Сегодня 23:54

Часовой пояс: GMT + 4



Вы не можете начинать темы
Вы не можете отвечать на сообщения
Вы не можете редактировать свои сообщения
Вы не можете удалять свои сообщения
Вы не можете голосовать в опросах
Вы не можете прикреплять файлы к сообщениям
Вы не можете скачивать файлы