Полицейская история 2013 года / Police Story 2013 (Динг Шенг / Ding Sheng) [2014, Китай, Гонконг, драма, криминал, WEB-DLRip] VO (qwerty) + Sub Eng + Original Eng

Ответить на тему
 
Автор Сообщение

user ®

Стаж: 11 лет

Сообщений: 15151

Пост Пост: #1 от 13-Фев-2014 02:15

[Цитировать]

Полицейская история 2013 года / Police Story 2013
Страна: Китай, Гонконг
Жанр: драма, криминал
Год выпуска: 2014
Продолжительность: 01:46:21
Перевод: Одноголосый закадровый (qwerty)
Cубтитры: китайские, английские
Оригинальная аудиодорожка: китайский
Режиссер: Динг Шенг / Ding Sheng
В ролях: Джеки Чан, Лю Е, Бо Хуанг, Тиань Чжин, Макс Хуан, Вэй На, Юй Жун Гуан, Александр Байли, Джеймс Лоджа
Описание: Посетители клуба оказываются взятыми в заложники. Среди них офицер полиции Чжунь Вэнь и его непослушная дочь Миа. Человек, удерживающий всех в заложниках — владелец клуба Ву Джанг, который таким образом пытается добиться освобождения из тюрьмы некоего человека
Качество видео: WEB-DLRip
Формат видео: AVI
Видео: Xvid, 640x480 (1,33:1), 16:9, 25 fps, 640 kbps avg, 0.083 bit/pixel
Аудио: 44.1 kHz, MPEG Audio Layer 3, 2/0 (L,R) ch, 192 kbps (RUS)
Аудио 2: 44.1 kHz, MPEG Audio Layer 3, 2/0 (L,R) ch, 128 kbps (CHN) оригинальная
Доп. информация о субтитрах: встроенные, неотключаемые
Сэмплhttp://sendfile.su/939113

MediaInfo

Формат : AVI
Формат/Информация : Audio Video Interleave
Размер файла : 741 Мбайт
Продолжительность : 1 ч. 46 м.
Общий поток : 974 Кбит/сек
Программа кодирования : VirtualDubMod 1.5.10.3 (build 2550/release)
Библиотека кодирования : VirtualDubMod build 2550/release
Видео
Идентификатор : 0
Формат : xvid
Идентификатор кодека : xvid
Продолжительность : 1 ч. 46 м.
Битрейт : 640 Кбит/сек
Ширина : 640 пикселей
Высота : 480 пикселей
Соотношение сторон : 16:9
Частота кадров : 25,000 кадров/сек
Бит/(Пиксели*Кадры) : 0.083
Размер потока : 487 Мбайт (66%)
Аудио #1
Идентификатор : 1
Формат : MPEG Audio
Версия формата : Version 1
Профиль формата : Layer 3
Режим : Joint stereo
Расширение режима : MS Stereo
Идентификатор кодека : 55
Идентификатор кодека/Подсказка : MP3
Продолжительность : 1 ч. 46 м.
Вид битрейта : Постоянный
Битрейт : 192 Кбит/сек
Каналы : 2 канала
Частота : 44,1 КГц
Метод сжатия : С потерями
Размер потока : 146 Мбайт (20%)
Выравнивание : Соединение по промежуткам
Продолжительность промежутка : 40 мс. (1,00 видеокадр)
Время предзагрузки промежутка : 522 мс.
Аудио #2
Идентификатор : 2
Формат : MPEG Audio
Версия формата : Version 1
Профиль формата : Layer 3
Режим : Joint stereo
Расширение режима : MS Stereo
Идентификатор кодека : 55
Идентификатор кодека/Подсказка : MP3
Продолжительность : 1 ч. 46 м.
Вид битрейта : Постоянный
Битрейт : 128 Кбит/сек
Каналы : 2 канала
Частота : 48,0 КГц
Метод сжатия : С потерями
Размер потока : 97,4 Мбайт (13%)
Выравнивание : Соединение по промежуткам
Продолжительность промежутка : 40 мс. (1,00 видеокадр)
Время предзагрузки промежутка : 504 мс.
Библиотека кодирования : LAME3.97

Скриншот c названием фильма

Скриншоты

Скачать

Скачать торрент! Полицейская история 2013 года / Police Story 2013 (Динг Шенг / Ding Sheng) [2014, Китай, Гонконг, драма, криминал, WEB-DLRip] VO (qwerty) + Sub Eng + Original Eng

Как скачивать? · Что такое торрент? · Рейтинг и ограничения

Сайт не распространяет и не хранит электронные версии произведений, а лишь предоставляет доступ к создаваемому пользователями каталогу ссылок на торрент-файлы, которые содержат только списки хеш-сумм

[Профиль] [ЛС]
Показать сообщения:    
Ответить на тему

Текущее время: Сегодня 02:09

Часовой пояс: GMT + 4



Вы не можете начинать темы
Вы не можете отвечать на сообщения
Вы не можете редактировать свои сообщения
Вы не можете удалять свои сообщения
Вы не можете голосовать в опросах
Вы не можете прикреплять файлы к сообщениям
Вы не можете скачивать файлы