Конец убийствам / An End To Killing (Вон Пин / Wong Ping) [2013, Китай, исторический, драма, HDTVRip] DVO

Ответить на тему
 
Автор Сообщение

user ®

Стаж: 13 лет

Сообщений: 15071

Пост Пост: #1 от 12-Фев-2014 23:05

[Цитировать]

Конец убийствам / An End To Killing
Страна: Китай
Жанр: исторический, драма
Год выпуска: 2013
Продолжительность: 01:47:37-Перевод: Любительский (двухголосый закадровый) den904 & DeadSno
Cубтитры: английские, китайские (вшитые)
Оригинальная аудиодорожка: нет-Режиссер: Вон Пин / Wong Ping
В ролях: Люн Кар Янь, Чжао Ю Лян, Ту Мэнь-Описание: Начало 13-го века. Даосский монах Цю Тюдзи в течение двух лет пытался остановить убийства, которые совершали Чингисхан и его солдаты в Европе и Азии.- -Релиз группы
-Качество видео: HDTVRip
Формат видео: AVI
Видео: XviD, 720x304 (2.37:1), 25 fps, 1743 kbps avg, 0.32 bit/pixel
Аудио: Русский MPEG layer 3, 2 ch, 48 khz, 192 kbps-

Доп. информация

Переводчик: Skyworker
Рип: Public Enemy (((

MediaInfo

Format : AVI
Format/Info : Audio Video Interleave
File size : 1.46 GiB
Duration : 1h 47mn
Overall bit rate : 1 945 Kbps
Writing application : VirtualDubMod 1.5.10.2 (build 2540/release)
Writing library : VirtualDubMod build 2540/release
Video
ID : 0
Format : MPEG-4 Visual
Format profile : Advanced Simple@L5
Format settings, BVOP : 1
Format settings, QPel : No
Format settings, GMC : No warppoints
Format settings, Matrix : Custom
Codec ID : XVID
Codec ID/Hint : XviD
Duration : 1h 47mn
Bit rate : 1 743 Kbps
Width : 720 pixels
Height : 304 pixels
Display aspect ratio : 2.35:1
Frame rate : 25.000 fps
Color space : YUV
Chroma subsampling : 4:2:0
Bit depth : 8 bits
Scan type : Progressive
Compression mode : Lossy
Bits/(Pixel*Frame) : 0.319
Stream size : 1.31 GiB (90%)
Writing library : XviD 73
Audio
ID : 1
Format : MPEG Audio
Format version : Version 1
Format profile : Layer 3
Mode : Joint stereo
Codec ID : 55
Codec ID/Hint : MP3
Duration : 1h 47mn
Bit rate mode : Constant
Bit rate : 192 Kbps
Channel(s) : 2 channels
Sampling rate : 48.0 KHz
Compression mode : Lossy
Stream size : 148 MiB (10%)
Alignment : Aligned on interleaves
Interleave, duration : 40 ms (1.00 video frame)
Interleave, preload duration : 504 ms

Скриншот с названием

Скриншоты

Скачать

Скачать торрент! Конец убийствам / An End To Killing (Вон Пин / Wong Ping) [2013, Китай, исторический, драма, HDTVRip] DVO

Как скачивать? · Что такое торрент? · Рейтинг и ограничения

Сайт не распространяет и не хранит электронные версии произведений, а лишь предоставляет доступ к создаваемому пользователями каталогу ссылок на торрент-файлы, которые содержат только списки хеш-сумм

[Профиль] [ЛС]
Показать сообщения:    
Ответить на тему

Текущее время: Сегодня 17:53

Часовой пояс: GMT + 4



Вы не можете начинать темы
Вы не можете отвечать на сообщения
Вы не можете редактировать свои сообщения
Вы не можете удалять свои сообщения
Вы не можете голосовать в опросах
Вы не можете прикреплять файлы к сообщениям
Вы не можете скачивать файлы