Лирика Джейсона / Узы братства / Jason\'s Lyric (Даг МакГенри / Doug McHenry) [1994, США, драма, HDTV 1080i] DVO (НТВ+) + AVO (Алексеев) + Original Eng

Ответить на тему
 
Автор Сообщение

user ®

Стаж: 8 лет 5 месяцев

Сообщений: 20007

Пост Пост: #1 от 12-Фев-2014 23:05

[Цитировать]

Лирика Джейсона / Узы братства / Jason's Lyric
Страна: США
Студия: Jackson/McHenry Company,The, PolyGram Filmed Entertainment, Propaganda Films
Жанр: драма
Год выпуска: 1994
Продолжительность: 01:54:05
Перевод 1: Профессиональный (двухголосый закадровый) НТВ+
Перевод 2: Авторский (одноголосый закадровый) А. Алексеев
Cубтитры: нет
Оригинальная аудиодорожка: английский
Режиссер: Даг МакГенри / Doug McHenry
В ролях: Аллен Пэйн /Allen Payne/, Джэда Пинкетт /Jada Pinkett/, Боким Вудбайн /Bokeem Woodbine/, Энтони "Трич" Крисс /Anthony "Treach" Criss/, Эдди Гриффин /Eddie Griffin/, Сюззанн Дауглас /Suzzanne Douglas/, Лиза Николь Карсон /Lisa Nicole Carson/, Ламард Тэйт /Lahmard Tate/, Форест Уитиакер /Forest Whitaker/
Описание: Жесткая криминальная драма рассказывает о трагической любви чернокожего паренька Джэйсона к девушки по имени Лирика. Эта поэтическая, чистая любовь проходит на фоне ужасающего мира гетто с повседневной грязью, преступностью, наркотиками и пьянством. В детстве Джэйсон убил своего пьяного отца (Уитакер), инвалида и ветерана Вьетнама, когда тот избивал мать, и это наложило отпечаток на всю его жизнь. Его младший брат, на глазах которого это все произошло, постоянно попадает в тюрьму, пьет, связался с уголовниками и, в конце концов, становится инструментом развязки этой жуткой и кровавой драмы.

IMDB
Доп. информация:
За авторский перевод Антона Алексеева и оригинальную дорогу спасибо sasikainen
Тип релиза: HDTV 1080i
Контейнер: MKV
Видео: AVC 1920x1080 (16:9) 25.0fps Bit rate 6590Kbps
Аудио 1: AC3 48.0KHz 2ch 192 Kbps rus dvo
Аудио 2: AC3 48.0KHz 2ch 192 Kbps rus avo
Аудио 3: AC3 48.0KHz 2ch 192 Kbps eng

MediaInfo

Общее
Уникальный идентификатор : 231243851033175711494044137440346251040 (0xADF7F21A71F75DD9A7166FEAAD7A1F20)
Полное имя : E:\torrent\Jason's Lyric.HDTV 1080i.mkv
Формат : Matroska
Версия формата : Version 4 / Version 2
Размер файла : 5,83 Гбайт
Продолжительность : 1 ч. 54 м.
Общий поток : 7312 Кбит/сек
Дата кодирования : UTC 2014-02-12 05:51:33
Программа кодирования : mkvmerge v6.6.0 ('The Edge Of The In Between') built on Dec 1 2013 17:55:00
Библиотека кодирования : libebml v1.3.0 + libmatroska v1.4.1
Видео
Идентификатор : 1
Формат : AVC
Формат/Информация : Advanced Video Codec
Профиль формата : High@L4.0
Параметр CABAC формата : Да
Параметр ReFrames формата : 3 кадра
Параметр GOP формата : M=4, N=32
Идентификатор кодека : V_MPEG4/ISO/AVC
Продолжительность : 1 ч. 54 м.
Битрейт : 6590 Кбит/сек
Ширина : 1920 пикселей
Высота : 1080 пикселей
Соотношение сторон : 16:9
Режим частоты кадров : Постоянный
Частота кадров : 25,000 кадров/сек
Стандарт вещания : Component
Цветовое пространство : YUV
Субдискретизация насыщенности : 4:2:0
Битовая глубина : 8 бит
Тип развёртки : Чересстрочная
Порядок развёртки : Верхнее поле первое
Бит/(Пиксели*Кадры) : 0.127
Размер потока : 5,25 Гбайт (90%)
Заголовок : Jason's Lyric_HDTV1080i
Default : Да
Forced : Нет
Основные цвета : BT.709
Характеристики трансфера : BT.709
Коэффициенты матрицы : BT.709
Аудио #1
Идентификатор : 2
Формат : MPEG Audio
Версия формата : Version 1
Профиль формата : Layer 2
Идентификатор кодека : A_MPEG/L2
Идентификатор кодека/Подсказка : MP2
Продолжительность : 1 ч. 54 м.
Вид битрейта : Постоянный
Битрейт : 192 Кбит/сек
Каналы : 2 канала
Частота : 48,0 КГц
Метод сжатия : С потерями
Размер потока : 157 Мбайт (3%)
Заголовок : Jason's Lyric_MP2_2ch_rus_dvo_NTV+
Язык : Russian
Default : Да
Forced : Нет
Аудио #2
Идентификатор : 3
Формат : AC-3
Формат/Информация : Audio Coding 3
Расширение режима : CM (complete main)
Параметр Endianness формата : Big
Идентификатор кодека : A_AC3
Продолжительность : 1 ч. 54 м.
Вид битрейта : Постоянный
Битрейт : 192 Кбит/сек
Каналы : 2 канала
Расположение каналов : Front: L R
Частота : 48,0 КГц
Битовая глубина : 16 бит
Метод сжатия : С потерями
Размер потока : 157 Мбайт (3%)
Заголовок : Jason's Lyric_AC3_2ch_rus_avo_A.Alekseev
Язык : Russian
Default : Нет
Forced : Нет
Аудио #3
Идентификатор : 4
Формат : AC-3
Формат/Информация : Audio Coding 3
Расширение режима : CM (complete main)
Параметр Endianness формата : Big
Идентификатор кодека : A_AC3
Продолжительность : 1 ч. 54 м.
Вид битрейта : Постоянный
Битрейт : 192 Кбит/сек
Каналы : 2 канала
Расположение каналов : Front: L R
Частота : 48,0 КГц
Битовая глубина : 16 бит
Метод сжатия : С потерями
Размер потока : 157 Мбайт (3%)
Заголовок : Jason's Lyric_AC3_2ch_original eng
Язык : English
Default : Нет
Forced : Нет

Скриншот с названием фильма

Скриншоты

Скачать

Скачать торрент!

Как скачивать? · Что такое торрент? · Рейтинг и ограничения

Сайт не распространяет и не хранит электронные версии произведений, а лишь предоставляет доступ к создаваемому пользователями каталогу ссылок на торрент-файлы, которые содержат только списки хеш-сумм

[Профиль] [ЛС]
Показать сообщения:    
Ответить на тему

Текущее время: Сегодня 02:00

Часовой пояс: GMT + 4



Вы не можете начинать темы
Вы не можете отвечать на сообщения
Вы не можете редактировать свои сообщения
Вы не можете удалять свои сообщения
Вы не можете голосовать в опросах
Вы не можете прикреплять файлы к сообщениям
Вы не можете скачивать файлы