Самый лучший фильм 2 (Олег Фомин) [2009, Комедия, пародия, приключения, фантастика, DVDRip]

Ответить на тему
 
Автор Сообщение

user ®

Стаж: 7 лет 7 месяцев

Сообщений: 20008

Пост Пост: #1 от 12-Фев-2014 23:05

[Цитировать]

Самый лучший фильм 2
Жанр: Комедия, пародия, приключения, фантастика
Год выпуска: 2009
Продолжительность: 01:21:36
Режиссёр: Олег Фомин
В ролях: Тимур Батрутдинов, Гарик Харламов, Дмитрий Хрусталёв, Олег Верещагин, Михаил Галустян, Дмитрий Нагиев, Александр Баширов, Сергей Лазарев, Сергей Зверев, Екатерина Конисевич, Фёдор Бондарчук
Описание: Четверо закадычных друзей - Моряк, Актёр, Мажор и Димати - после долгой разлуки встречаются в московском кафе отметить день рождения Мажора. На сей раз у них есть наличные, чтобы расплатиться с официанткой. И бегать по городу в поисках денег они будут совершенно по другой причине. Мажора похитили и требуют выкуп — миллион евро. Чем друзья будут расплачиваться с бандитами, кто найдет новую любовь, а вместе с ней и приключения на все органы жизнедеятельности, кому придется испытать все тяготы сложного пути шоу-бизнеса к популярности, каково рэпперу кавказской наружности гулять одному по безлюдным улицам?! Но все это впереди, а пока они молоды, красивы, полны сил, надежд и ждут приключений!

Качество видео: DVDRip (исходник DVD-9)
Формат видео: AVI
Видео: XviD, 704x304 (2.35:1), 2176 Кбит/с, 25 кадр/с
Аудио: Русский, Dolby АС3, 48000 Гц, 384 Кбит/с, 6 каналов (5.1)

Автор рипа - ivandubskoj

MediaInfo

Общее
Полное имя : Samyy.luchshiy.fil'm.2.2009.DVDRip.avi
Формат : AVI
Формат/Информация : Audio Video Interleave
Размер файла : 1,46 Гбайт
Продолжительность : 1 ч. 21 м.
Общий поток : 2568 Кбит/сек
Название фильма : Самый лучший фильм (2009) DVDRip
Жанр : Комедия, пародия, приключения, фантастика
Дата записи : 12.02.2014
Программа кодирования : VirtualDubMod 1.5.10.3 (build 2550/release)
Библиотека кодирования : VirtualDubMod build 2550/release
Правообладатель : rip by ivandubskoj
Видео
Идентификатор : 0
Формат : MPEG-4 Visual
Профиль формата : Advanced Simple@L5
Параметр BVOP формата : 1
Параметр QPel формата : Нет
Параметр GMC формата : Без точки перехода
Параметр матрицы формата : Default (MPEG)
Идентификатор кодека : XVID
Идентификатор кодека/Подсказка : XviD
Продолжительность : 1 ч. 21 м.
Битрейт : 2176 Кбит/сек
Ширина : 704 пикселя
Высота : 304 пикселя
Соотношение сторон : 2,35:1
Частота кадров : 25,000 кадров/сек
Цветовое пространство : YUV
Субдискретизация насыщенности : 4:2:0
Битовая глубина : 8 бит
Тип развёртки : Прогрессивная
Метод сжатия : С потерями
Бит/(Пиксели*Кадры) : 0.407
Размер потока : 1,24 Гбайт (85%)
Библиотека кодирования : XviD 73
Аудио
Идентификатор : 1
Формат : AC-3
Формат/Информация : Audio Coding 3
Расширение режима : CM (complete main)
Параметр Endianness формата : Big
Идентификатор кодека : 2000
Продолжительность : 1 ч. 21 м.
Вид битрейта : Постоянный
Битрейт : 384 Кбит/сек
Каналы : 6 каналов
Расположение каналов : Front: L C R, Side: L R, LFE
Частота : 48,0 КГц
Битовая глубина : 16 бит
Метод сжатия : С потерями
Размер потока : 224 Мбайт (15%)
Выравнивание : Разделение по промежуткам
Продолжительность промежутка : 64 мс. (1,60 видеокадра)
Время предзагрузки промежутка : 500 мс.
Заголовок : Russian

Скриншот c названием фильма

Скриншоты


Скачать

Скачать торрент!

Как скачивать? · Что такое торрент? · Рейтинг и ограничения

Сайт не распространяет и не хранит электронные версии произведений, а лишь предоставляет доступ к создаваемому пользователями каталогу ссылок на торрент-файлы, которые содержат только списки хеш-сумм

[Профиль] [ЛС]
Показать сообщения:    
Ответить на тему

Текущее время: Сегодня 00:36

Часовой пояс: GMT + 4



Вы не можете начинать темы
Вы не можете отвечать на сообщения
Вы не можете редактировать свои сообщения
Вы не можете удалять свои сообщения
Вы не можете голосовать в опросах
Вы не можете прикреплять файлы к сообщениям
Вы не можете скачивать файлы