Каунасский блюз / Kauno Bliuzas (Павел Санаев) [2004 г., короткометражный, драма, психологический, мистика, DVDRip]

Ответить на тему
 
Автор Сообщение

user ®

Стаж: 7 лет 7 месяцев

Сообщений: 20008

Пост Пост: #1 от 12-Фев-2014 10:40

[Цитировать]

Каунасский блюз
Страна: Россия, Литва
Жанр: Короткометражный, драма, психологический, мистика
Год выпуска: 2004
Продолжительность: 00:28:40
Перевод: Профессиональный одноголосый
Cубтитры: Отсутствуют
Режиссёр: Павел Санаев
В ролях: Донатас Банионис, Альгимантас Масюлис, Любомирас Лауцевичюс, Екатерина Редникова, Иоланта Дапкунайте, Ритис Скрипка
Описание: 78-ми летний старик, Альгис, решает добровольно уйти из жизни, чтобы избавить себя от страха еще более глубокой старости и смерти. Однако в этот тяжелый момент он узнает, что его выбор повлечет за собой гибельные последствия для невинных людей...

Качество видео: DVDRip (исходник DVD-5)
Формат видео: AVI
Видео: XviD, 640x480 (4:3), 1340 Кбит/с, 25 кадр/с
Аудио: MP3, 48000 Гц, 128 Кбит/с Стерео (2 канала)

Автор Rip'а - ivandubskoj

MI

бщее
Полное имя : Kaunasskij.Bluz.2004.DVDRip.avi
Формат : AVI
Формат/Информация : Audio Video Interleave
Размер файла : 303 Мбайт
Продолжительность : 28 м.
Общий поток : 1478 Кбит/сек
Название фильма : Каунасский блюз (2004) DVDRip
Жанр : Короткометражка, драма, мистика
Дата записи : 11.02.2014
Программа кодирования : VirtualDubMod 1.5.10.3 (build 2550/release)
Библиотека кодирования : VirtualDubMod build 2550/release
Правообладатель : rip by ivandubskoj
Видео
Идентификатор : 0
Формат : MPEG-4 Visual
Профиль формата : Advanced Simple@L5
Параметр BVOP формата : 1
Параметр QPel формата : Нет
Параметр GMC формата : Без точки перехода
Параметр матрицы формата : Default (H.263)
Идентификатор кодека : XVID
Идентификатор кодека/Подсказка : XviD
Продолжительность : 28 м.
Битрейт : 1340 Кбит/сек
Ширина : 640 пикселей
Высота : 480 пикселей
Соотношение сторон : 4:3
Частота кадров : 25,000 кадров/сек
Цветовое пространство : YUV
Субдискретизация насыщенности : 4:2:0
Битовая глубина : 8 бит
Тип развёртки : Прогрессивная
Метод сжатия : С потерями
Бит/(Пиксели*Кадры) : 0.174
Размер потока : 275 Мбайт (91%)
Библиотека кодирования : XviD 73
Аудио
Идентификатор : 1
Формат : MPEG Audio
Версия формата : Version 1
Профиль формата : Layer 3
Идентификатор кодека : 55
Идентификатор кодека/Подсказка : MP3
Продолжительность : 28 м.
Вид битрейта : Постоянный
Битрейт : 128 Кбит/сек
Каналы : 2 канала
Частота : 48,0 КГц
Метод сжатия : С потерями
Размер потока : 26,3 Мбайт (9%)
Выравнивание : Соединение по промежуткам
Продолжительность промежутка : 40 мс. (1,00 видеокадр)
Время предзагрузки промежутка : 504 мс.
Заголовок : Russian (VO)
Библиотека кодирования : LAME3.99r
Настройки программы : -m s -V 4 -q 0 -lowpass 17 -b 128

Скриншот с название фильма

Скриншоты

12.02.2014 - РАЗДАЧА ПЕРЕЗАЛИТА. СДЕЛАЛ НОВЫЙ РИП. КАЧАЙТЕ.
Скачать

Скачать торрент!

Как скачивать? · Что такое торрент? · Рейтинг и ограничения

Сайт не распространяет и не хранит электронные версии произведений, а лишь предоставляет доступ к создаваемому пользователями каталогу ссылок на торрент-файлы, которые содержат только списки хеш-сумм

[Профиль] [ЛС]
Показать сообщения:    
Ответить на тему

Текущее время: Сегодня 21:40

Часовой пояс: GMT + 4



Вы не можете начинать темы
Вы не можете отвечать на сообщения
Вы не можете редактировать свои сообщения
Вы не можете удалять свои сообщения
Вы не можете голосовать в опросах
Вы не можете прикреплять файлы к сообщениям
Вы не можете скачивать файлы