Первоклассница (Илья Фрэз) [1948, Детский, драма, комедия, приключения, семейный, экранизация, DVDRip]

Ответить на тему
 
Автор Сообщение

user ®

Стаж: 7 лет 7 месяцев

Сообщений: 20008

Пост Пост: #1 от 12-Фев-2014 10:40

[Цитировать]

Первоклассница
Жанр: Детский, драма, комедия, приключения, семейный, экранизация
Год выпуска: 1948
Продолжительность: 01:07:32
Режиссёр: Илья Фрэз
В ролях: Тамара Макарова, Кира Головко, Татьяна Барышева, Наталья Защипина, Мила Костыкова, Елена Таранова, Тамара Вихман, Игорь Ерошкин, Алёна Егорова, Мария Жвирблис, Валентина Кибардина, Степан Каюков, Владимир Уральский, Георгий Милляр, Елена Максимова, Ростислав Плятт
Описание: Маруся Орлова стала первоклассницей для неё началась интересная, полная событий и переживаний жизнь. Из самолюбивой и капризной девочки под воздействием учительницы и под влиянием своих новых подружек она превращается в дисциплинированную, общительную и отзывчивую ученицу.
Качество видео: DVDRip (Исходник: DVD-5)
Формат видео: AVI
Видео: XviD, 640x496 (1.290), 25 кадр/с, 1316 Кбит/с
Аудио: Русский, MP3, 48000 Гц, 128 Кбит/с, 2 канала (Стерео)

Автор рипа - ivandubskoj

Интересные факты

Фильм снят по одноименной повести Евгения Шварца, отрывок из которой был напечатан в журнале "Мурзилка" перед выходом фильма.
Впоследствии в новых изданиях книги, многие кадры из этого фильма - были использованы в качестве её иллюстраций.
Фильм восстановлен в 1964 году на киностудии им. М. Горького.

MediaInfo

Общее
Полное имя : Pervoklassnitsa.1948.DVDRip.avi
Формат : AVI
Формат/Информация : Audio Video Interleave
Размер файла : 702 Мбайт
Продолжительность : 1 ч. 7 м.
Общий поток : 1454 Кбит/сек
Название фильма : Первоклассница (1948) DVDRip
Жанр : Детский, драма, комедия
Дата записи : 11.02.2014
Программа кодирования : VirtualDubMod 1.5.10.3 (build 2550/release)
Библиотека кодирования : VirtualDubMod build 2550/release
Правообладатель : rip by ivandubskoj
Видео
Идентификатор : 0
Формат : MPEG-4 Visual
Профиль формата : Advanced Simple@L5
Параметр BVOP формата : 1
Параметр QPel формата : Нет
Параметр GMC формата : Без точки перехода
Параметр матрицы формата : Default (H.263)
Идентификатор кодека : XVID
Идентификатор кодека/Подсказка : XviD
Продолжительность : 1 ч. 7 м.
Битрейт : 1316 Кбит/сек
Ширина : 640 пикселей
Высота : 496 пикселей
Соотношение сторон : 1,290
Частота кадров : 25,000 кадров/сек
Цветовое пространство : YUV
Субдискретизация насыщенности : 4:2:0
Битовая глубина : 8 бит
Тип развёртки : Прогрессивная
Метод сжатия : С потерями
Бит/(Пиксели*Кадры) : 0.166
Размер потока : 636 Мбайт (91%)
Библиотека кодирования : XviD 73
Аудио
Идентификатор : 1
Формат : MPEG Audio
Версия формата : Version 1
Профиль формата : Layer 3
Идентификатор кодека : 55
Идентификатор кодека/Подсказка : MP3
Продолжительность : 1 ч. 7 м.
Вид битрейта : Постоянный
Битрейт : 128 Кбит/сек
Каналы : 2 канала
Частота : 48,0 КГц
Метод сжатия : С потерями
Размер потока : 61,8 Мбайт (9%)
Выравнивание : Соединение по промежуткам
Продолжительность промежутка : 40 мс. (1,00 видеокадр)
Время предзагрузки промежутка : 504 мс.
Заголовок : Russian
Библиотека кодирования : LAME3.99r
Настройки программы : -m s -V 4 -q 0 -lowpass 17 -b 128

Скриншот c названием фильма

Скриншоты

Скачать

Скачать торрент!

Как скачивать? · Что такое торрент? · Рейтинг и ограничения

Сайт не распространяет и не хранит электронные версии произведений, а лишь предоставляет доступ к создаваемому пользователями каталогу ссылок на торрент-файлы, которые содержат только списки хеш-сумм

[Профиль] [ЛС]
Показать сообщения:    
Ответить на тему

Текущее время: Сегодня 02:17

Часовой пояс: GMT + 4



Вы не можете начинать темы
Вы не можете отвечать на сообщения
Вы не можете редактировать свои сообщения
Вы не можете удалять свои сообщения
Вы не можете голосовать в опросах
Вы не можете прикреплять файлы к сообщениям
Вы не можете скачивать файлы