Дождь в горах / Raining in the Mountain / Kong shan ling yu (Кинг Ху / King Hu) [1979, Тайвань, Гонконг, боевик, драма, DVDRip] VO (Виктор Береговых)

Ответить на тему
 
Автор Сообщение

user ®

Стаж: 11 лет

Сообщений: 15151

Пост Пост: #1 от 12-Фев-2014 02:05

[Цитировать]

Дождь в горах / Raining in the Mountain / Kong shan ling yu
Страна: Тайвань, Гонконг
Жанр: боевик, драма
Год выпуска: 1979
Продолжительность: 01:54:33
Перевод: Одноголосый закадровый Виктор Береговых
Cубтитры: нет
Режиссер: Кинг Ху / King Hu
В ролях: Сюй Фэн, Тун Линь, Сунь Юэ, Тянь Фэн, Ши Цзюнь, Пол Чун, Нг Минчхой, Лу Чунь
Описание: Великая династия Мин (XIV-XVII вв. н. э.), невероятно красивые горы, чаньский монастырь и жестокая, не оставляющая места ни буддистскому состраданию, ни просветлению борьба за место настоятеля, а также за обладание бесценным свитком с Трипитакой, хранящимся в монастырской библиотеке.
Доп. информация: В списке 100 лучших фильмов по версии Hong Kong Film Awards "Дождь в горах" занимает 59-е место.
Благодарность: За перевод благодарность выражается zoloz, за озвучивание - Виктору Береговых (Jet), за исходник - loxaba.
Качество видео: DVDRip
Формат видео: AVI
Видео: 720x304 (2.37:1), 25 fps, XviD build 50 ~1630 kbps avg, 0.30 bit/pixel
Аудио: 48 kHz, AC3 Dolby Digital, 2/0 (L,R) ch, ~192 kbps

MediaInfo

Format : AVI
Format/Info : Audio Video Interleave
File size : 1,47 Гбайт
Duration : 1 ч. 54 м.
Overall bit rate : 1833 Кбит/сек
Writing application : VirtualDubMod 1.5.10.3 | www.virtualdub-fr.org || (build 2550/release)
Writing library : VirtualDubMod build 2550/release
Видео
ID : 0
Format : MPEG-4 Visual
Format profile : Advanced Simple@L5
Format settings, BVOP : 2
Format settings, QPel : Нет
Format settings, GMC : Без точки перехода
Format settings, Matrix : Default (MPEG)
Codec ID : XVID
Codec ID/Hint : XviD
Duration : 1 ч. 54 м.
Bit rate : 1631 Кбит/сек
Width : 720 пикселей
Height : 304 пикселя
Display aspect ratio : 2,35:1
Frame rate : 25,000 кадров/сек
Color space : YUV
Chroma subsampling : 4:2:0
Bit depth : 8 бит
Scan type : Прогрессивная
Compression mode : С потерями
Bits/(Pixel*Frame) : 0.298
Stream size : 1,30 Гбайт (89%)
Writing library : XviD 1.2.1 (UTC 2008-12-04)
Аудио
ID : 1
Format : AC-3
Format/Info : Audio Coding 3
Mode extension : CM (complete main)
Format settings, Endianness : Big
Codec ID : 2000
Duration : 1 ч. 54 м.
Bit rate mode : Постоянный
Bit rate : 192 Кбит/сек
Channel(s) : 2 канала
Channel positions : Front: L R
Sampling rate : 48,0 КГц
Bit depth : 16 бит
Compression mode : С потерями
Stream size : 157 Мбайт (10%)
Alignment : Разделение по промежуткам
Interleave, duration : 40 мс. (1,00 видеокадр)
Interleave, preload duration : 500 мс.

Скриншот c названием фильма

Скриншоты

Скачать

Скачать торрент! Дождь в горах / Raining in the Mountain / Kong shan ling yu (Кинг Ху / King Hu) [1979, Тайвань, Гонконг, боевик, драма, DVDRip] VO (Виктор Береговых)

Как скачивать? · Что такое торрент? · Рейтинг и ограничения

Сайт не распространяет и не хранит электронные версии произведений, а лишь предоставляет доступ к создаваемому пользователями каталогу ссылок на торрент-файлы, которые содержат только списки хеш-сумм

[Профиль] [ЛС]
Показать сообщения:    
Ответить на тему

Текущее время: Сегодня 20:00

Часовой пояс: GMT + 4



Вы не можете начинать темы
Вы не можете отвечать на сообщения
Вы не можете редактировать свои сообщения
Вы не можете удалять свои сообщения
Вы не можете голосовать в опросах
Вы не можете прикреплять файлы к сообщениям
Вы не можете скачивать файлы