Невероятная Правда / The Incredible Truth (Сам Лон Так Сам / Sam Leong Tak-Sam) [2013, Китай, детектив, драма, HDRip] DVO

Ответить на тему
 
Автор Сообщение

user ®

Стаж: 13 лет

Сообщений: 15071

Пост Пост: #1 от 12-Фев-2014 02:05

[Цитировать]

Невероятная Правда / The Incredible Truth
Страна: Китай
Жанр: детектив, драма
Год выпуска: 2013
Продолжительность: 01:30:26-Перевод: Любительский (двухголосый закадровый) den904 & DeadSno
Cубтитры: нет
Оригинальная аудиодорожка: нет-Режиссер: Сам Лон Так Сам / Sam Leong Tak-Sam
В ролях: Кристи Чун, Сэм Ли, Лю Янь, Кунимиру Дзюн, Тони Хо, Абэ Мари-Описание: Молодая и прелестная актриса Тья-Тья, влюбляется в гарного японского парня, который, помимо различных достоинств, еще и наследник гостиничного бизнеса. На крыльях любви, Тья-Тья летит к своему возлюбленному в Японию. Через некоторое время, ее подруга, оставшаяся в Китае, начинает получать тревожные смс...Прилетев в Японию, чтобы разобраться в ситуации, она выясняет, что Тья-Тья пропала, а семья ее жениха ведет себя крайне странно и подозрительно. Девушка решает выяснить, что же случилось, и в этом ей помогают ее экстрасенсорные способности, благодаря которым, он смогла увидеть психоментальный отпечаток, оставленный Тья-Тья в комнатах гостиницы. Следуя за ним, верная подруга сможет узнать правду.- -Релиз группы
-Качество видео: HDRip
Формат видео: AVI
Видео: XviD, 720x304 (2.37:1), 24 fps, 2111 kbps avg, 0.40 bit/pixel
Аудио: Русский MPEG layer 3, 2 ch, 48khz, 192 kbps-

Доп. информация

Переводчик: Ками
Рип: Public Enemy (((

MediaInfo

Format : AVI
Format/Info : Audio Video Interleave
File size : 1.46 GiB
Duration : 1h 30mn
Overall bit rate : 2 313 Kbps
Writing application : VirtualDubMod 1.5.10.3 | www.virtualdub-fr.org || (build 2550/release)
Writing library : VirtualDubMod build 2550/release
Video
ID : 0
Format : MPEG-4 Visual
Format profile : Advanced Simple@L5
Format settings, BVOP : 1
Format settings, QPel : No
Format settings, GMC : No warppoints
Format settings, Matrix : Custom
Codec ID : XVID
Codec ID/Hint : XviD
Duration : 1h 30mn
Bit rate : 2 112 Kbps
Width : 720 pixels
Height : 304 pixels
Display aspect ratio : 2.35:1
Frame rate : 24.000 fps
Color space : YUV
Chroma subsampling : 4:2:0
Bit depth : 8 bits
Scan type : Progressive
Compression mode : Lossy
Bits/(Pixel*Frame) : 0.402
Stream size : 1.33 GiB (91%)
Writing library : XviD 73
Audio
ID : 1
Format : MPEG Audio
Format version : Version 1
Format profile : Layer 3
Codec ID : 55
Codec ID/Hint : MP3
Duration : 1h 30mn
Bit rate mode : Constant
Bit rate : 192 Kbps
Channel(s) : 2 channels
Sampling rate : 48.0 KHz
Compression mode : Lossy
Stream size : 124 MiB (8%)
Alignment : Aligned on interleaves
Interleave, duration : 42 ms (1.00 video frame)
Interleave, preload duration : 504 ms

Скриншот с названием

Скриншоты

Скачать

Скачать торрент! Невероятная Правда / The Incredible Truth (Сам Лон Так Сам / Sam Leong Tak-Sam) [2013, Китай, детектив, драма, HDRip] DVO

Как скачивать? · Что такое торрент? · Рейтинг и ограничения

Сайт не распространяет и не хранит электронные версии произведений, а лишь предоставляет доступ к создаваемому пользователями каталогу ссылок на торрент-файлы, которые содержат только списки хеш-сумм

[Профиль] [ЛС]
Показать сообщения:    
Ответить на тему

Текущее время: Сегодня 11:19

Часовой пояс: GMT + 4



Вы не можете начинать темы
Вы не можете отвечать на сообщения
Вы не можете редактировать свои сообщения
Вы не можете удалять свои сообщения
Вы не можете голосовать в опросах
Вы не можете прикреплять файлы к сообщениям
Вы не можете скачивать файлы