Довольно слов / Enough Said (Николь Холофсенер / Nicole Holofcener ) [2013, США, драма, мелодрама, комедия, BDRip 1080p] MVO (iTunes) + Original eng + Sub rus, eng

Ответить на тему
 
Автор Сообщение

user ®

Стаж: 7 лет 7 месяцев

Сообщений: 20008

Пост Пост: #1 от 11-Фев-2014 22:55

[Цитировать]

Довольно слов / Enough Said
Страна: США
Жанр: драма, мелодрама, комедия
Год выпуска: 2013
Продолжительность: 01:33:00
Перевод#1: Профессиональный (многоголосый закадровый) | iTunes Russia
Cубтитры: русские, английские
Оригинальная аудиодорожка: английский
Режиссер: Николь Холофсенер / Nicole Holofcener
В ролях: Джулия Луис-Дрейфус, Джеймс Гандольфини, Кэтрин Кинер, Тони Коллетт, Бен Фэлкуон, Ленни Лофтин, Джессика Ст. Клэр, Кристофер Николас Смит, Трэйси Фэирэуэй, Михаэлла Уоткинс
Описание: Ева развелась и столкнулась со сложным моментом в жизни — что делать дальше? Она знакомится с другим обаятельным мужчиной, который оказывается бывшим мужем женщины, которая всегда была для нее идеалом....

Доп. информация: Спасибо Вам, Mr. Gandolfini, и счастливого Вам пути...
Тип релиза: BDRip 1080p (от HDMaNiAcS) | sample
Контейнер: MKV
Видео кодек: x264
Видео: AVC 1920x1036 (1.85:1), 23.976 fps, ~13800 Kbps (42%), 0.30 bit/pixel
Аудио #1: Russian AC3 6ch 48kHz 384Kbps | iTunes
Аудио #2: English DTS 6ch 48kHz 1510Kbps | Original
Формат субтитров: softsub (SRT)
Главы: есть

MediaInfo

General
Complete name : E:\...\Enough.Said.2013.1080p.BluRay.x264.Rus.Eng-HDMaNiAcS.mkv
Format : Matroska
Format version : Version 2
File size : 10.2 GiB
Duration : 1h 32mn
Overall bit rate : 15.7 Mbps
Movie name : Enough.Said.2013.1080p.BluRay.x264.Rus.Eng-HDMaNiAcS
Encoded date : UTC 2014-02-11 06:36:27
Writing application : mkvmerge v6.5.0 ('Isn't she lovely') built on Oct 20 2013 12:50:05
Writing library : libebml v1.3.0 + libmatroska v1.4.1
Video
ID : 1
Format : AVC
Format/Info : Advanced Video Codec
Format profile : High@L4.1
Format settings, CABAC : Yes
Format settings, ReFrames : 4 frames
Codec ID : V_MPEG4/ISO/AVC
Bit rate : 13.8 Mbps
Width : 1 920 pixels
Height : 1 036 pixels
Display aspect ratio : 1.85:1
Frame rate mode : Variable
Original frame rate : 23.976 fps
Color space : YUV
Chroma subsampling : 4:2:0
Bit depth : 8 bits
Scan type : Progressive
Bits/(Pixel*Frame) : 0.289
Title : Enough.Said.2013.1080p.BluRay.DD5.1.x264-HDMaNiAcS
Writing library : x264 core 138 r2358kMod 9e941d1
Encoding settings : cabac=1 / ref=4 / deblock=1:-3:-3 / analyse=0x3:0x113 / me=tesa / subme=11 / psy=1 / fade_compensate=0.00 / psy_rd=1.10:0.00 / mixed_ref=1 / me_range=32 / chroma_me=1 / trellis=2 / 8x8dct=1 / cqm=0 / deadzone=21,11 / fast_pskip=0 / chroma_qp_offset=-2 / threads=18 / lookahead_threads=3 / sliced_threads=0 / nr=0 / decimate=0 / interlaced=0 / bluray_compat=0 / constrained_intra=0 / bframes=8 / b_pyramid=2 / b_adapt=2 / b_bias=0 / direct=3 / weightb=1 / open_gop=0 / weightp=2 / keyint=250 / keyint_min=23 / scenecut=40 / intra_refresh=0 / rc_lookahead=40 / rc=2pass / mbtree=0 / bitrate=13800 / ratetol=1.0 / qcomp=0.60 / qpmin=10 / qpmax=69 / qpstep=4 / cplxblur=20.0 / qblur=0.5 / vbv_maxrate=40000 / vbv_bufsize=30000 / nal_hrd=none / ip_ratio=1.35 / pb_ratio=1.10 / aq=3:0.80
Language : English
Default : Yes
Forced : No
Audio #1
ID : 2
Format : AC-3
Format/Info : Audio Coding 3
Mode extension : CM (complete main)
Format settings, Endianness : Big
Codec ID : A_AC3
Duration : 1h 32mn
Bit rate mode : Constant
Bit rate : 384 Kbps
Channel(s) : 6 channels
Channel positions : Front: L C R, Side: L R, LFE
Sampling rate : 48.0 KHz
Bit depth : 16 bits
Compression mode : Lossy
Stream size : 255 MiB (2%)
Title : MVO iTunes
Language : Russian
Default : Yes
Forced : No
Audio #2
ID : 3
Format : DTS
Format/Info : Digital Theater Systems
Codec ID : A_DTS
Duration : 1h 32mn
Bit rate mode : Constant
Bit rate : 1 510 Kbps
Channel(s) : 6 channels
Channel positions : Front: L C R, Side: L R, LFE
Sampling rate : 48.0 KHz
Bit depth : 24 bits
Compression mode : Lossy
Stream size : 1 004 MiB (10%)
Title : Original
Language : English
Default : No
Forced : No
Text #1
ID : 4
Format : UTF-8
Codec ID : S_TEXT/UTF8
Codec ID/Info : UTF-8 Plain Text
Language : Russian
Default : No
Forced : No
Text #2
ID : 5
Format : UTF-8
Codec ID : S_TEXT/UTF8
Codec ID/Info : UTF-8 Plain Text
Language : English
Default : No
Forced : No
Text #3
ID : 6
Format : UTF-8
Codec ID : S_TEXT/UTF8
Codec ID/Info : UTF-8 Plain Text
Title : SDH
Language : English
Default : No
Forced : No
Text #4
ID : 7
Format : UTF-8
Codec ID : S_TEXT/UTF8
Codec ID/Info : UTF-8 Plain Text
Title : SDH-Colored
Language : English
Default : No
Forced : No
Menu
00:00:00.000 : en:00:00:00.000
00:02:45.999 : en:00:02:45.999
00:07:17.145 : en:00:07:17.145
00:11:07.458 : en:00:11:07.458
00:16:07.133 : en:00:16:07.133
00:18:04.208 : en:00:18:04.208
00:20:06.664 : en:00:20:06.664
00:26:21.413 : en:00:26:21.413
00:28:43.472 : en:00:28:43.472
00:30:44.468 : en:00:30:44.468
00:32:58.435 : en:00:32:58.435
00:35:34.174 : en:00:35:34.174
00:41:21.479 : en:00:41:21.479
00:44:06.477 : en:00:44:06.477
00:47:11.287 : en:00:47:11.287
00:49:23.002 : en:00:49:23.002
00:54:15.836 : en:00:54:15.836
00:57:41.375 : en:00:57:41.375
00:59:11.840 : en:00:59:11.840
01:02:03.970 : en:01:02:03.970
01:08:48.499 : en:01:08:48.499
01:11:40.213 : en:01:11:40.213
01:14:36.138 : en:01:14:36.138
01:16:12.443 : en:01:16:12.443
01:20:19.940 : en:01:20:19.940
01:23:41.016 : en:01:23:41.016
01:26:50.914 : en:01:26:50.914
01:30:26.212 : en:01:30:26.212

Скриншоты

source vs HDMaNiAcS





Скачать

Скачать торрент!

Как скачивать? · Что такое торрент? · Рейтинг и ограничения

Сайт не распространяет и не хранит электронные версии произведений, а лишь предоставляет доступ к создаваемому пользователями каталогу ссылок на торрент-файлы, которые содержат только списки хеш-сумм

[Профиль] [ЛС]
Показать сообщения:    
Ответить на тему

Текущее время: Сегодня 07:52

Часовой пояс: GMT + 4



Вы не можете начинать темы
Вы не можете отвечать на сообщения
Вы не можете редактировать свои сообщения
Вы не можете удалять свои сообщения
Вы не можете голосовать в опросах
Вы не можете прикреплять файлы к сообщениям
Вы не можете скачивать файлы