Довольно слов / Enough Said (Николь Холофсенер / Nicole Holofcener ) [2013, США, драма, мелодрама, комедия, BDRip 720p] MVO (iTunes) + Original eng + Sub rus, eng

Ответить на тему
 
Автор Сообщение

user ®

Стаж: 7 лет 7 месяцев

Сообщений: 20008

Пост Пост: #1 от 11-Фев-2014 22:55

[Цитировать]

Довольно слов / Enough Said
Страна: США
Жанр: драма, мелодрама, комедия
Год выпуска: 2013
Продолжительность: 01:33:00
Перевод#1: Профессиональный (многоголосый закадровый) | iTunes Russia
Cубтитры: русские, английские
Оригинальная аудиодорожка: английский
Режиссер: Николь Холофсенер / Nicole Holofcener
В ролях: Джулия Луис-Дрейфус, Джеймс Гандольфини, Кэтрин Кинер, Тони Коллетт, Бен Фэлкуон, Ленни Лофтин, Джессика Ст. Клэр, Кристофер Николас Смит, Трэйси Фэирэуэй, Михаэлла Уоткинс
Описание: Ева развелась и столкнулась со сложным моментом в жизни — что делать дальше? Она знакомится с другим обаятельным мужчиной, который оказывается бывшим мужем женщины, которая всегда была для нее идеалом....

Тип релиза: BDRip 720p (от TayTO) | sample
Контейнер: MKV
Видео кодек: x264
Видео: AVC 1280x694 (1.85:1), 23.976 fps, ~7300 Kbps, 0.34 bit/pixel
Аудио #1: Russian AC3 6ch 48kHz 384Kbps | iTunes
Аудио #2: English AC3 6ch 48kHz 640Kbps | Original
Формат субтитров: softsub (SRT)
Главы: есть

MediaInfo | x264

x264

x264 [info]: frame I:1320 Avg QP:12.19 size:190535
x264 [info]: frame P:27833 Avg QP:13.48 size: 74207
x264 [info]: frame B:104624 Avg QP:15.54 size: 26385
x264 [info]: consecutive B-frames: 1.7% 2.2% 6.0% 20.6% 16.5% 45.6% 4.2% 1.8% 0.8% 0.3% 0.2% 0.2%
encoded 133777 frames, 4.59 fps, 7279.92 kb/s
General
Complete name : E:\...\Enough.Said.2013.720p.BluRay.x264.DD5.1.Rus.Eng-TayTO.mkv
Format : Matroska
Format version : Version 2
File size : 5.40 GiB
Duration : 1h 32mn
Overall bit rate : 8 307 Kbps
Movie name : Enough.Said.2013.720p.BluRay.x264.DD5.1.Rus.Eng-TayTO
Encoded date : UTC 2014-02-11 06:30:35
Writing application : mkvmerge v6.5.0 ('Isn't she lovely') built on Oct 20 2013 12:50:05
Writing library : libebml v1.3.0 + libmatroska v1.4.1
Video
ID : 1
Format : AVC
Format/Info : Advanced Video Codec
Format profile : High@L4.1
Format settings, CABAC : Yes
Format settings, ReFrames : 9 frames
Codec ID : V_MPEG4/ISO/AVC
Bit rate : 7 117 Kbps
Width : 1 280 pixels
Height : 694 pixels
Display aspect ratio : 1.85:1
Frame rate mode : Variable
Original frame rate : 23.976 fps
Color space : YUV
Chroma subsampling : 4:2:0
Bit depth : 8 bits
Scan type : Progressive
Title : Enough Said (2013)
Writing library : x264 core 140 r2377 1ca7bb9
Encoding settings : cabac=1 / ref=9 / deblock=1:-3:-3 / analyse=0x3:0x133 / me=tesa / subme=11 / psy=1 / psy_rd=1.00:0.00 / mixed_ref=1 / me_range=16 / chroma_me=1 / trellis=2 / 8x8dct=1 / cqm=0 / deadzone=21,11 / fast_pskip=0 / chroma_qp_offset=-2 / threads=12 / lookahead_threads=3 / sliced_threads=0 / nr=0 / decimate=1 / interlaced=0 / bluray_compat=0 / constrained_intra=0 / bframes=11 / b_pyramid=2 / b_adapt=2 / b_bias=0 / direct=3 / weightb=1 / open_gop=0 / weightp=2 / keyint=250 / keyint_min=23 / scenecut=40 / intra_refresh=0 / rc=crf / mbtree=0 / crf=14.3 / qcomp=0.70 / qpmin=0 / qpmax=69 / qpstep=4 / ip_ratio=1.40 / pb_ratio=1.30 / aq=1:0.70
Language : English
Default : Yes
Forced : No
Matrix coefficients : BT.709
Audio #1
ID : 2
Format : AC-3
Format/Info : Audio Coding 3
Mode extension : CM (complete main)
Format settings, Endianness : Big
Codec ID : A_AC3
Duration : 1h 32mn
Bit rate mode : Constant
Bit rate : 384 Kbps
Channel(s) : 6 channels
Channel positions : Front: L C R, Side: L R, LFE
Sampling rate : 48.0 KHz
Bit depth : 16 bits
Compression mode : Lossy
Stream size : 255 MiB (5%)
Title : MVO iTunes
Language : Russian
Default : Yes
Forced : No
Audio #2
ID : 3
Format : AC-3
Format/Info : Audio Coding 3
Mode extension : CM (complete main)
Format settings, Endianness : Big
Codec ID : A_AC3
Duration : 1h 32mn
Bit rate mode : Constant
Bit rate : 640 Kbps
Channel(s) : 6 channels
Channel positions : Front: L C R, Side: L R, LFE
Sampling rate : 48.0 KHz
Bit depth : 16 bits
Compression mode : Lossy
Stream size : 426 MiB (8%)
Title : Original
Language : English
Default : No
Forced : No
Text #1
ID : 4
Format : UTF-8
Codec ID : S_TEXT/UTF8
Codec ID/Info : UTF-8 Plain Text
Language : Russian
Default : No
Forced : No
Text #2
ID : 5
Format : UTF-8
Codec ID : S_TEXT/UTF8
Codec ID/Info : UTF-8 Plain Text
Language : English
Default : No
Forced : No
Text #3
ID : 6
Format : UTF-8
Codec ID : S_TEXT/UTF8
Codec ID/Info : UTF-8 Plain Text
Title : SDH
Language : English
Default : No
Forced : No
Text #4
ID : 7
Format : UTF-8
Codec ID : S_TEXT/UTF8
Codec ID/Info : UTF-8 Plain Text
Title : SDH-Colored
Language : English
Default : No
Forced : No
Menu
00:00:00.000 : en:00:00:00.000
00:02:45.999 : en:00:02:45.999
00:07:17.145 : en:00:07:17.145
00:11:07.458 : en:00:11:07.458
00:16:07.133 : en:00:16:07.133
00:18:04.208 : en:00:18:04.208
00:20:06.664 : en:00:20:06.664
00:26:21.413 : en:00:26:21.413
00:28:43.472 : en:00:28:43.472
00:30:44.468 : en:00:30:44.468
00:32:58.435 : en:00:32:58.435
00:35:34.174 : en:00:35:34.174
00:41:21.479 : en:00:41:21.479
00:44:06.477 : en:00:44:06.477
00:47:11.287 : en:00:47:11.287
00:49:23.002 : en:00:49:23.002
00:54:15.836 : en:00:54:15.836
00:57:41.375 : en:00:57:41.375
00:59:11.840 : en:00:59:11.840
01:02:03.970 : en:01:02:03.970
01:08:48.499 : en:01:08:48.499
01:11:40.213 : en:01:11:40.213
01:14:36.138 : en:01:14:36.138
01:16:12.443 : en:01:16:12.443
01:20:19.940 : en:01:20:19.940
01:23:41.016 : en:01:23:41.016
01:26:50.914 : en:01:26:50.914
01:30:26.212 : en:01:30:26.212

Скриншоты

source vs TayTO





Скачать

Скачать торрент!

Как скачивать? · Что такое торрент? · Рейтинг и ограничения

Сайт не распространяет и не хранит электронные версии произведений, а лишь предоставляет доступ к создаваемому пользователями каталогу ссылок на торрент-файлы, которые содержат только списки хеш-сумм

[Профиль] [ЛС]
Показать сообщения:    
Ответить на тему

Текущее время: Сегодня 12:24

Часовой пояс: GMT + 4



Вы не можете начинать темы
Вы не можете отвечать на сообщения
Вы не можете редактировать свои сообщения
Вы не можете удалять свои сообщения
Вы не можете голосовать в опросах
Вы не можете прикреплять файлы к сообщениям
Вы не можете скачивать файлы