Цветы на чердаке / Flowers in the Attic (Дебора Чоу / Deborah Chow) [2014, Канада, США , триллер, драма, детектив, HDRip] VO (ViruseProject)

Ответить на тему
 
Автор Сообщение

user ®

Стаж: 7 лет 7 месяцев

Сообщений: 20008

Пост Пост: #1 от 11-Фев-2014 22:55

[Цитировать]

Цветы на чердаке / Flowers in the Attic
Страна: Канада, США
Жанр: триллер, драма, детектив
Год выпуска: 2014
Продолжительность: 01:29:59
Перевод: Одноголосый закадровый ViruseProject
Cубтитры: нет
Оригинальная аудиодорожка: нет
Режиссер: Дебора Чоу / Deborah Chow
В ролях: Хэзер Грэм, Эллен Бёрстин, Кирнан Шипка, Мэйсон Дай, Дилан Брюс, Ава Телек, Бо Дэниелс, Б.Дж. Харрисон и другие
Описание: Когда у Корин Доллагэнгер внезапно умер любимый муж, для неё и четырёх детей настали тяжелые времена. Она осталась без гроша, без работы и не знала, что делать. Жизнь вынудила её вернуться в дом своих родителей Фоксвортов, людей богатых, но жестоких и ханжей.


Релиз:
Закадровое озвучание: Александр Харченко
Перевод: peacock
Сведение звука: viruse (Виталий Емельянов)
смотреть ТРЕЙЛЕР к фильму на youtube
смотреть СЕМПЛ озвучки на youtube
скачать СЕМПЛ с multi-up
Качество видео: HDRip
Формат видео: AVI
Видео: 720x400 (1.80:1), 23.976 fps, XviD MPEG-4 ~1898 kbps avg, 0.28 bit/pixel
Аудио: 48 kHz, AC3 Dolby Digital, 2/0 (L,R) ch, ~256 kbps

MediaInfo

D:\ОЗВУЧКА\СМИТ\Flowers.in.the.Attic.2014.ViruseProject.avi
General
Complete name : D:\ОЗВУЧКА\СМИТ\Flowers.in.the.Attic.2014.ViruseProject.avi
Format : AVI
Format/Info : Audio Video Interleave
File size : 1.36 GiB
Duration : 1h 29mn
Overall bit rate : 2 164 Kbps
Writing application : VirtualDubMod 1.5.10.2 (build 2540/release)
Writing library : VirtualDubMod build 2540/release
Video #0
ID : 0
Format : MPEG-4 Visual
Format profile : Advanced Simple@L5
Format settings, BVOP : 2
Format settings, QPel : No
Format settings, GMC : No warppoints
Format settings, Matrix : Default (H.263)
Muxing mode : Packed bitstream
Codec ID : XVID
Codec ID/Hint : XviD
Duration : 1h 29mn
Bit rate : 1 899 Kbps
Width : 720 pixels
Height : 400 pixels
Display aspect ratio : 16:9
Frame rate : 23.976 fps
Color space : YUV
Chroma subsampling : 4:2:0
Bit depth : 8 bits
Scan type : Progressive
Compression mode : Lossy
Bits/(Pixel*Frame) : 0.275
Stream size : 1.19 GiB (88%)
Writing library : XviD 64
Audio #1
ID : 1
Format : AC-3
Format/Info : Audio Coding 3
Mode extension : CM (complete main)
Format settings, Endianness : Big
Codec ID : 2000
Duration : 1h 29mn
Bit rate mode : Constant
Bit rate : 256 Kbps
Channel(s) : 2 channels
Channel positions : Front: L R
Sampling rate : 48.0 KHz
Bit depth : 16 bits
Compression mode : Lossy
Stream size : 165 MiB (12%)
Alignment : Split accross interleaves
Interleave, duration : 42 ms (1.00 video frame)
Interleave, preload duration : 500 ms

Скриншот с НАЗВАНИЕМ ФИЛЬМА

Скриншоты

Скачать

Скачать торрент!

Как скачивать? · Что такое торрент? · Рейтинг и ограничения

Сайт не распространяет и не хранит электронные версии произведений, а лишь предоставляет доступ к создаваемому пользователями каталогу ссылок на торрент-файлы, которые содержат только списки хеш-сумм

[Профиль] [ЛС]
Показать сообщения:    
Ответить на тему

Текущее время: Сегодня 18:38

Часовой пояс: GMT + 4



Вы не можете начинать темы
Вы не можете отвечать на сообщения
Вы не можете редактировать свои сообщения
Вы не можете удалять свои сообщения
Вы не можете голосовать в опросах
Вы не можете прикреплять файлы к сообщениям
Вы не можете скачивать файлы