Гравитация / Gravity (Альфонсо Куарон / Alfonso Cuaron) [2013, США, фантастика, триллер, драма, BDRip 720p] Dub (iTunes) + Original eng + Sub rus, eng

Ответить на тему
 
Автор Сообщение

user ®

Стаж: 7 лет 7 месяцев

Сообщений: 20008

Пост Пост: #1 от 11-Фев-2014 01:10

[Цитировать]

Гравитация / Gravity
Страна: США
Жанр: фантастика, триллер, драма
Год выпуска: 2013
Продолжительность: 01:30:59
Перевод: Профессиональный (дублированный) | iTunes Russia
Cубтитры: русские, английские
Оригинальная аудиодорожка: английский
Режиссер: Альфонсо Куарон / Alfonso Cuaron
В ролях: Сандра Буллок, Джордж Клуни, Эд Харрис, Орто Игнатиуссен, Фалдут Шарма, Эми Уоррен, Башер Саваж, Дженис Ахерн
Описание: Доктор Райан Стоун, блестящий специалист в области медицинского инжиниринга, отправляется в свою первую космическую миссию под командованием ветерана астронавтики Мэтта Ковальски, для которого этот полет - последний перед отставкой. Но во время, казалось бы, рутинной работы за бортом случается катастрофа
Шаттл уничтожен, а Стоун и Ковальски остаются совершенно одни; они находятся в связке друг с другом, и все, что они могут, - это двигаться по орбите в абсолютно черном пространстве без всякой связи с Землей и какой-либо надежды на спасение...
[/url]
Тип релиза: BDRip 720p (от HiDt) | sample
Контейнер: MKV
Видео кодек: x264
Видео: AVC 1280x534 (2.40:1), 23.976 fps, ~8200 Kbps, 0.50 bit/pixel
Аудио #1: Russian AC3 6ch 48kHz 384Kbps | Dub iTunes Russia
Аудио #2: English AC3 6ch 48kHz 640Kbps | Original
Формат субтитров: softsub (SRT)
Главы: есть

MediaInfo

General
Complete name : E:\...\Gravity.2013.720p.BluRay.x264.DD5.1.Rus.Eng-HiDt.mkv
Format : Matroska
Format version : Version 2
File size : 5.86 GiB
Duration : 1h 30mn
Overall bit rate : 9 220 Kbps
Movie name : Gravity.2013.720p.BluRay.x264.DD5.1.Rus.Eng-HiDt
Encoded date : UTC 2014-02-10 10:48:53
Writing application : mkvmerge v6.5.0 ('Isn't she lovely') built on Oct 20 2013 12:50:05
Writing library : libebml v1.3.0 + libmatroska v1.4.1
Video
ID : 1
Format : AVC
Format/Info : Advanced Video Codec
Format profile : High@L4.1
Format settings, CABAC : Yes
Format settings, ReFrames : 12 frames
Codec ID : V_MPEG4/ISO/AVC
Bit rate : 8 013 Kbps
Width : 1 280 pixels
Height : 534 pixels
Display aspect ratio : 2.40:1
Frame rate mode : Variable
Original frame rate : 23.976 fps
Color space : YUV
Chroma subsampling : 4:2:0
Bit depth : 8 bits
Scan type : Progressive
Title : Gravity (2013)
Writing library : x264 core 142 r2389 956c8d8
Encoding settings : cabac=1 / ref=12 / deblock=1:-3:-3 / analyse=0x3:0x113 / me=tesa / subme=11 / psy=1 / psy_rd=0.97:0.00 / mixed_ref=1 / me_range=32 / chroma_me=1 / trellis=2 / 8x8dct=1 / cqm=0 / deadzone=21,11 / fast_pskip=0 / chroma_qp_offset=-2 / threads=12 / lookahead_threads=2 / sliced_threads=0 / nr=0 / decimate=1 / interlaced=0 / bluray_compat=0 / constrained_intra=0 / bframes=8 / b_pyramid=2 / b_adapt=2 / b_bias=0 / direct=3 / weightb=1 / open_gop=0 / weightp=2 / keyint=240 / keyint_min=23 / scenecut=40 / intra_refresh=0 / rc_lookahead=80 / rc=crf / mbtree=1 / crf=14.5 / qcomp=0.70 / qpmin=0 / qpmax=69 / qpstep=4 / vbv_maxrate=40000 / vbv_bufsize=40000 / crf_max=0.0 / nal_hrd=none / filler=0 / ip_ratio=1.40 / aq=1:0.90
Language : English
Default : Yes
Forced : No
Audio #1
ID : 2
Format : AC-3
Format/Info : Audio Coding 3
Mode extension : CM (complete main)
Format settings, Endianness : Big
Codec ID : A_AC3
Duration : 1h 30mn
Bit rate mode : Constant
Bit rate : 384 Kbps
Channel(s) : 6 channels
Channel positions : Front: L C R, Side: L R, LFE
Sampling rate : 48.0 KHz
Bit depth : 16 bits
Compression mode : Lossy
Stream size : 250 MiB (4%)
Title : Dub iTunes
Language : Russian
Default : Yes
Forced : No
Audio #2
ID : 3
Format : AC-3
Format/Info : Audio Coding 3
Mode extension : CM (complete main)
Format settings, Endianness : Big
Codec ID : A_AC3
Duration : 1h 30mn
Bit rate mode : Constant
Bit rate : 640 Kbps
Channel(s) : 6 channels
Channel positions : Front: L C R, Side: L R, LFE
Sampling rate : 48.0 KHz
Bit depth : 16 bits
Compression mode : Lossy
Stream size : 416 MiB (7%)
Title : Original
Language : English
Default : No
Forced : No
Text #1
ID : 4
Format : UTF-8
Codec ID : S_TEXT/UTF8
Codec ID/Info : UTF-8 Plain Text
Title : forced
Language : Russian
Default : Yes
Forced : No
Text #2
ID : 5
Format : UTF-8
Codec ID : S_TEXT/UTF8
Codec ID/Info : UTF-8 Plain Text
Language : Russian
Default : No
Forced : No
Text #3
ID : 6
Format : UTF-8
Codec ID : S_TEXT/UTF8
Codec ID/Info : UTF-8 Plain Text
Language : English
Default : No
Forced : No
Text #4
ID : 7
Format : UTF-8
Codec ID : S_TEXT/UTF8
Codec ID/Info : UTF-8 Plain Text
Title : SDH
Language : English
Default : No
Forced : No
Menu
00:00:00.000 : en:Chapter 01
00:13:08.829 : en:Chapter 02
00:21:33.542 : en:Chapter 03
00:29:12.667 : en:Chapter 04
00:39:59.855 : en:Chapter 05
00:48:49.051 : en:Chapter 06
00:57:00.667 : en:Chapter 07
01:08:08.417 : en:Chapter 08
01:15:27.147 : en:Chapter 09
01:23:50.567 : en:Chapter 10

Скриншоты

source vs HiDt

Скачать

Скачать торрент!

Как скачивать? · Что такое торрент? · Рейтинг и ограничения

Сайт не распространяет и не хранит электронные версии произведений, а лишь предоставляет доступ к создаваемому пользователями каталогу ссылок на торрент-файлы, которые содержат только списки хеш-сумм

[Профиль] [ЛС]
Показать сообщения:    
Ответить на тему

Текущее время: Сегодня 04:21

Часовой пояс: GMT + 4



Вы не можете начинать темы
Вы не можете отвечать на сообщения
Вы не можете редактировать свои сообщения
Вы не можете удалять свои сообщения
Вы не можете голосовать в опросах
Вы не можете прикреплять файлы к сообщениям
Вы не можете скачивать файлы