Змей и радуга / Serpent and The Rainbow, The (Уэс Крэйвен / Wes Craven) [1988, США, ужасы, фэнтези, детектив, BDRip 1080p] 2x AVO(Горчаков, Иванов) + VO + 3х MVO + Sub Eng + Original Eng

Ответить на тему
 
Автор Сообщение

user ®

Стаж: 7 лет 7 месяцев

Сообщений: 20008

Пост Пост: #1 от 11-Фев-2014 01:10

[Цитировать]

Змей и радуга / Serpent and The Rainbow, The
Страна: США
Студия: Universal Pictures
Жанр: ужасы, фэнтези, детектив
Год выпуска: 1988
Продолжительность: 01:38:03
Перевод 1: Авторский (одноголосый закадровый) ВАСИЛИЙ ГОРЧАКОВ
Перевод 2: Авторский (одноголосый закадровый) МИХАИЛ ИВАНОВ
Перевод 3: Одноголосый закадровый
Перевод 4: Профессиональный (многоголосый закадровый) (Лицензия "Настроение Видео")
Перевод 5: Профессиональный (многоголосый закадровый) ORT
Перевод 6: Профессиональный (многоголосый закадровый) CTC
Cубтитры: английские
Оригинальная аудиодорожка: английский
Режиссер: Уэс Крэйвен / Wes Craven
В ролях: Билл Пуллман /Bill Pullman/, Кэти Тайсон /Cathy Tyson/, Зэйкс Мокэй /Zakes Mokae/, Пол Уинфилд /Paul Winfield/, Брент Дженнингс /Brent Jennings/, Конрад Робертс /Conrad Roberts/, Майкл Гаф /Michael Gough/, Тереза Мерритт /Theresa Merritt/, Пол Гилфойл /Paul Guilfoyle/, Дей Янг /Dey Young/, Баджа Джола /Badja Djola/, Элита Митчелл /Aleta Mitchell/
Описание: Увлекательная и страшноватая картина об антропологе Деннисе Элане (Пуллмэн), который отправляется на Гаити, чтобы найти там порошок или напиток, способный оживлять мертвецов, поставлена по книге Уэйда Дэвиса. В легендах "вуду" змей - символ Земли. Радуга - символ небес. Между ними должны жить и умирать все существа. Но человек обладает душой, и поэтому может попасть в ужасное место, где смерть только начало". Такими словами открывается фильм. Затем добавляется, что события фильма основаны на реальной истории. Действие начинается на Гаити в 1978 году. Сейчас на дворе уже второе тысячелетие, а фильм все равно смотрится с захватывающим интересом Это картина не только для любителей "ужастиков" про зомби. (Иванов М.)
Дополнение к описанию: Уэйд Дэвис, автор книги, положенной в основу фильма, продавая права на ее экранизацию, пос­тавил условие, что постановщиком был Питер Уэйр, а главную роль исполнил бы Мел Гибсон. Од­нако режиссером картины в итоге стал Уэс Крэйвен, а в главной роли выступил Билл Пуллман.
В связи с обострением политической ситуации и гражданскими волнениями на Гаити местные влас­ти предупредили членов съемочной группы о том, что не смогут гарантировать их безопасность. После этого съемки были перенесены в соседнюю Доминиканскую республику.
CD с саундтреком фильма считается одним из самых дорогих раритетов в области киномузыки, так как было сделано всего 10 экземпляров таких CD; остальной тираж этого саундтрека был выпущен на виниловых пластинках.
Для создания эффектов нечисти в фильме, был использован голос Диаманды Галас
--------------------------------------------------
Оператор: Джон Лайндли /John Lindley/
Сценарист: Ричард Максвелл /Richard Maxwell/, Э. Р. Симун /A. R. Simoun/
Продюсер: Дэвид Лэдд /David Ladd/, Даг Клэйборн /Doug Claybourne/
Монтажер: Гленн Фарр /Glenn Farr/
Композитор: Брэд Фидел /Brad Fiedel/
Художник: Дэвид Николс /David Nichols/
Костюмы: Питер Митчелл /Peter Mitchell/
Исполнительный продюсер: Роб Коэн /Rob Cohen/, Кит Бэриш /Keith Barish/
Кастинг: Дайэнн Криттенден /Dianne Crittenden/
По произведению: Уэйд Дэвис /Wade Davis/
--------------------------------------------------
КИНОПОИСК. RU
РЕЙТИНГ ФИЛЬМА: 6.841 оценки: 706
6,4/10 from 14 053 users
--------------------------------------------------
--------------------------------------------------
СЭМПЛ
--------------------------------------------------
Примечание: Скорость маленькая 50 kb/c, но раздаю круглосуточно.
--------------------------------------------------
Тип релиза: BDRip 1080p
Контейнер: MKV
Видео: 1920 x 1040; 23.976 fps; ~ 8059 Kbps; 0.168 Bits/Pixel
Аудио 1: Russian - 48 kHz, AC3 Dolby Digital, 2/0 (L,R) 2ch, ~192 kbps - Василий Горчаков
Аудио 2: Russian - 48 kHz, AC3 Dolby Digital, 2/0 (L,R) 2ch, ~192 kbps - Михаил Иванов
Аудио 3: Russian - 48 kHz, AC3 Dolby Digital, 2/0 (L,R) 2ch, ~192 kbps - VO
Аудио 4: Russian - 48 kHz, AC3 Dolby Digital, 2/0 (L,R) 2ch, ~192 kbps - MVO - (Настроение Видео)
Аудио 5: Russian - 48 kHz, AC3 Dolby Digital, 2/0 (L,R) 2ch, ~192 kbps - MVO-ORT
Аудио 6: Russian - 48 kHz, AC3 Dolby Digital, 2/0 (L,R) 2ch, ~192 kbps - MVO-CTC
Аудио 7: English - 48 kHz, DTS, Dolby Digital, 2/0 (L,R) 2ch, ~1510 kbps - Original
Формат субтитров: English UTF-8

MediaInfo

General
Complete name : F:\EXCLUZIVE=19\ЗМЕЙ И РАДУГА-1080. =The.Serpent.and.the.Rainbow.1988\Serpent and The Rainbow, The.1988\the.serpent.and.the.rainbow.1988.1080p.bluray.mkv
Format : Matroska
File size : 7.34 GiB
Duration : 1h 38mn
Overall bit rate : 10.7 Mbps
Encoded date : UTC 2014-01-17 01:20:56
Writing application : mkvmerge v3.3.0 ('Language') built on Mar 24 2010 14:59:24
Writing library : libebml v0.8.0 + libmatroska v0.9.0
Video
ID : 1
Format : AVC
Format/Info : Advanced Video Codec
Format profile : High@L4.1
Format settings, CABAC : Yes
Format settings, ReFrames : 4 frames
Muxing mode : Container profile=Unknown@4.1
Codec ID : V_MPEG4/ISO/AVC
Duration : 1h 38mn
Bit rate : 8 059 Kbps
Width : 1 920 pixels
Height : 1 040 pixels
Display aspect ratio : 16:9
Frame rate : 23.976 fps
Color space : YUV
Chroma subsampling : 4:2:0
Bit depth : 8 bits
Scan type : Progressive
Bits/(Pixel*Frame) : 0.168
Stream size : 5.37 GiB (73%)
Title : The.Serpent.and.the.Rainbow.1988.
Writing library : x264 core 140 r2377 1ca7bb9
Encoding settings : cabac=1 / ref=4 / deblock=1:0:0 / analyse=0x3:0x133 / me=umh / subme=7 / psy=1 / psy_rd=1.00:0.00 / mixed_ref=1 / me_range=16 / chroma_me=1 / trellis=1 / 8x8dct=1 / cqm=0 / deadzone=21,11 / fast_pskip=0 / chroma_qp_offset=-2 / threads=18 / lookahead_threads=3 / sliced_threads=0 / nr=0 / decimate=1 / interlaced=0 / bluray_compat=0 / constrained_intra=0 / bframes=3 / b_pyramid=2 / b_adapt=1 / b_bias=0 / direct=1 / weightb=1 / open_gop=0 / weightp=1 / keyint=250 / keyint_min=23 / scenecut=40 / intra_refresh=0 / rc_lookahead=40 / rc=2pass / mbtree=1 / bitrate=8059 / ratetol=1.0 / qcomp=0.60 / qpmin=0 / qpmax=69 / qpstep=4 / cplxblur=20.0 / qblur=0.5 / ip_ratio=1.40 / aq=1:1.00
Language : English
Audio #1
ID : 2
Format : AC-3
Format/Info : Audio Coding 3
Mode extension : CM (complete main)
Codec ID : A_AC3
Duration : 1h 38mn
Bit rate mode : Constant
Bit rate : 192 Kbps
Channel(s) : 2 channels
Channel positions : Front: L R
Sampling rate : 48.0 KHz
Stream size : 135 MiB (2%)
Title : AVO Горчаков @ AC3 2 ch. 192 kbps
Language : Russian
Audio #2
ID : 3
Format : AC-3
Format/Info : Audio Coding 3
Mode extension : CM (complete main)
Codec ID : A_AC3
Duration : 1h 38mn
Bit rate mode : Constant
Bit rate : 192 Kbps
Channel(s) : 2 channels
Channel positions : Front: L R
Sampling rate : 48.0 KHz
Stream size : 135 MiB (2%)
Title : AVO Иванов @ AC3 2 ch. 192 kbps
Language : Russian
Audio #3
ID : 4
Format : AC-3
Format/Info : Audio Coding 3
Mode extension : CM (complete main)
Codec ID : A_AC3
Duration : 1h 38mn
Bit rate mode : Constant
Bit rate : 192 Kbps
Channel(s) : 2 channels
Channel positions : Front: L R
Sampling rate : 48.0 KHz
Stream size : 135 MiB (2%)
Title : VO @ AC3 2 ch. 192 kbps
Language : Russian
Audio #4
ID : 5
Format : AC-3
Format/Info : Audio Coding 3
Mode extension : CM (complete main)
Codec ID : A_AC3
Duration : 1h 38mn
Bit rate mode : Constant
Bit rate : 192 Kbps
Channel(s) : 2 channels
Channel positions : Front: L R
Sampling rate : 48.0 KHz
Stream size : 135 MiB (2%)
Title : MVO(Настроение Видео) @ AC3 2 ch. 192 kbps
Language : Russian
Audio #5
ID : 6
Format : AC-3
Format/Info : Audio Coding 3
Mode extension : CM (complete main)
Codec ID : A_AC3
Duration : 1h 38mn
Bit rate mode : Constant
Bit rate : 192 Kbps
Channel(s) : 2 channels
Channel positions : Front: L R
Sampling rate : 48.0 KHz
Stream size : 135 MiB (2%)
Title : MVO-ORT @ AC3 2 ch. 192 kbps
Language : Russian
Audio #6
ID : 7
Format : AC-3
Format/Info : Audio Coding 3
Mode extension : CM (complete main)
Codec ID : A_AC3
Duration : 1h 38mn
Bit rate mode : Constant
Bit rate : 192 Kbps
Channel(s) : 2 channels
Channel positions : Front: L R
Sampling rate : 48.0 KHz
Stream size : 135 MiB (2%)
Title : MVO-CTC @ AC3 2 ch. 192 kbps
Language : Russian
Audio #7
ID : 8
Format : DTS
Format/Info : Digital Theater Systems
Codec ID : A_DTS
Duration : 1h 38mn
Bit rate mode : Constant
Bit rate : 1 510 Kbps
Channel(s) : 2 channels
Channel positions : Front: L R
Sampling rate : 48.0 KHz
Bit depth : 16 bits
Video delay : 11ms
Stream size : 1.03 GiB (14%)
Title : Original @ DTS 2ch. 1510 kbps
Language : English
Text #1
ID : 9
Format : UTF-8
Codec ID : S_TEXT/UTF8
Codec ID/Info : UTF-8 Plain Text
Title : (* UTF-8)
Language : English
Text #2
ID : 10
Format : UTF-8
Codec ID : S_TEXT/UTF8
Codec ID/Info : UTF-8 Plain Text
Title : (* UTF-8)-CC
Language : English
Menu
00:00:00.000 : en:00:00:00.000
00:05:13.146 : en:00:05:13.146
00:11:41.325 : en:00:11:41.325
00:21:54.604 : en:00:21:54.604
00:27:52.754 : en:00:27:52.754
00:35:22.537 : en:00:35:22.537
00:42:36.887 : en:00:42:36.887
00:46:36.168 : en:00:46:36.168
00:52:05.872 : en:00:52:05.872
01:00:01.973 : en:01:00:01.973
01:07:01.434 : en:01:07:01.434
01:12:20.878 : en:01:12:20.878
01:17:14.838 : en:01:17:14.838
01:21:57.287 : en:01:21:57.287
01:27:33.373 : en:01:27:33.373
01:33:47.246 : en:01:33:47.246

Скриншот c названием фильма

Скриншоты

, ,
, ,
, ,
, ,
Скачать

Скачать торрент!

Как скачивать? · Что такое торрент? · Рейтинг и ограничения

Сайт не распространяет и не хранит электронные версии произведений, а лишь предоставляет доступ к создаваемому пользователями каталогу ссылок на торрент-файлы, которые содержат только списки хеш-сумм

[Профиль] [ЛС]
Показать сообщения:    
Ответить на тему

Текущее время: Сегодня 07:03

Часовой пояс: GMT + 4



Вы не можете начинать темы
Вы не можете отвечать на сообщения
Вы не можете редактировать свои сообщения
Вы не можете удалять свои сообщения
Вы не можете голосовать в опросах
Вы не можете прикреплять файлы к сообщениям
Вы не можете скачивать файлы