Лихорадка: Пациент Зеро / Cabin Fever: Patient Zero (Кааре Эндрюс / Kaare Andrews) [2014, США, Ужасы, BDRip] DVO

Ответить на тему
 
Автор Сообщение

user ®

Стаж: 7 лет 7 месяцев

Сообщений: 20008

Пост Пост: #1 от 10-Фев-2014 19:15

[Цитировать]

Лихорадка: Пациент Зеро / Cabin Fever: Patient Zero
«Лето. Море. Смерть»
- Год выпуска: 2014
Выпущено: США / Indomina Productions
Жанр: ужасы
Продолжительность: 01:34:50
Перевод: Двухголосый закадровый |DeadSno & den904|
Cубтитры: нет-Режиссер:
Кааре Эндрюс / Kaare Andrews-В ролях:
Шон Эстин (Porter), Карри Грэм (Dr. Edwards), Райан Доноху (Dobs), Брандо Итон (Josh), Джиллиан Мюррэй (Penny), Митч Райан (Marcus), Солли Дюран (Camila), Лидия Хёрст (Bridget), Клодетт Лали (Kate), Эрнесто Баез (Rodriguez)-Описание:
Молодая компания отправляется на Карибские острова, чтобы оттянуться перед свадьбой одного из друзей. Но на берегу лазурного океана, посреди вечного лета и райского блаженства ребята обнаруживают очаг смертоносной болезни… Вскоре начинается отчет жертв… Удастся ли кому-нибудь выжить?-| IMDB | КиноПоиск | Сэмпл |-Качество: BDRip [Cabin.Fever.Patient.Zero.2014.UNCUT.1080p.BluRay.AVC.DTS-HD.MA.7.1-PublicHD]
Формат: AVI
Видео: 720x304 (2.37:1), 23.976 fps, XviD build 73 ~1745 kbps avg, 0.33 bit/pixel
Аудио: 48 kHz, AC3 Dolby Digital, 3/2 (L,C,R,l,r) + LFE ch, ~448.00 kbps avg
-

Скриншоты

MediaInfo

General
Complete name                            : D:\Lihoradka_Paсient_Zero_2014_BDRip_by_Dalemake.avi
Format                                   : AVI
Format/Info                              : Audio Video Interleave
File size                                : 1.46 GiB
Duration                                 : 1h 34mn
Overall bit rate                         : 2 203 Kbps
Writing application                      : VirtualDubMod 1.5.10.3 | www.virtualdub-fr.org || (build 2550/release)
Writing library                          : VirtualDubMod build 2550/release
Video
ID                                       : 0
Format                                   : MPEG-4 Visual
Format profile                           : Advanced Simple@L5
Format settings, BVOP                    : 1
Format settings, QPel                    : No
Format settings, GMC                     : No warppoints
Format settings, Matrix                  : Custom
Codec ID                                 : XVID
Codec ID/Hint                            : XviD
Duration                                 : 1h 34mn
Bit rate                                 : 1 746 Kbps
Width                                    : 720 pixels
Height                                   : 304 pixels
Display aspect ratio                     : 2.35:1
Frame rate                               : 23.976 fps
Color space                              : YUV
Chroma subsampling                       : 4:2:0
Bit depth                                : 8 bits
Scan type                                : Progressive
Compression mode                         : Lossy
Bits/(Pixel*Frame)                       : 0.333
Stream size                              : 1.16 GiB (79%)
Writing library                          : XviD 73
Audio
ID                                       : 1
Format                                   : AC-3
Format/Info                              : Audio Coding 3
Mode extension                           : CM (complete main)
Format settings, Endianness              : Big
Codec ID                                 : 2000
Duration                                 : 1h 34mn
Bit rate mode                            : Constant
Bit rate                                 : 448 Kbps
Channel(s)                               : 6 channels
Channel positions                        : Front: L C R, Side: L R, LFE
Sampling rate                            : 48.0 KHz
Bit depth                                : 16 bits
Compression mode                         : Lossy
Stream size                              : 304 MiB (20%)
Alignment                                : Split accross interleaves
Interleave, duration                     : 42 ms (1.00 video frame)
Interleave, preload duration             : 500 ms
Скачать

Скачать торрент!

Как скачивать? · Что такое торрент? · Рейтинг и ограничения

Сайт не распространяет и не хранит электронные версии произведений, а лишь предоставляет доступ к создаваемому пользователями каталогу ссылок на торрент-файлы, которые содержат только списки хеш-сумм

[Профиль] [ЛС]
Показать сообщения:    
Ответить на тему

Текущее время: Сегодня 13:52

Часовой пояс: GMT + 4



Вы не можете начинать темы
Вы не можете отвечать на сообщения
Вы не можете редактировать свои сообщения
Вы не можете удалять свои сообщения
Вы не можете голосовать в опросах
Вы не можете прикреплять файлы к сообщениям
Вы не можете скачивать файлы