Я буду пилотом / Ah, yokaren / The Young Eagles of the Kamikaze (Синдзи Мураяма / Shinji Murayama) [1968, Япония, военный, драма, DVDRip] Sub Rus

Ответить на тему
 
Автор Сообщение

user ®

Стаж: 13 лет

Сообщений: 15071

Пост Пост: #1 от 10-Фев-2014 01:10

[Цитировать]

Я буду пилотом / Ah, yokaren / The Young Eagles of the Kamikaze
Страна: Япония
Жанр: военный, драма
Год выпуска: 1968
Продолжительность: 01:51:30
Перевод: Отсутствует
Cубтитры: русские
Режиссер: Синдзи Мураяма / Shinji Murayama
В ролях: Юкико Аньо, Юнзабуро Бан, Сонни Чиба, Джанко Фуджи, Масуми Харукава, Асако Хирага, Рейжи Хосака, Рё Икэбэ, Дзюдзо Итами, Тоситака Ито.
Описание: Фильм посвящен душам выпускников лётной школы, погибших во Второй мировой войне. Небо было Богом для этих детей. Они мечтали стать пилотами и окончить летную школу. Однако в трудное для страны время, они были вынуждены стать камикадзе-смертниками, и все отдали свои жизни за свою родину. Этот фильм - об отчаянных молодых японских пилотах.
Доп. информация: DVDRip by alf62
Большое СПАСИБО за работу над фильмом:
- за перевод субтитров: kofka19;

IMDb
Качество видео: DVDRip
Формат видео: AVI
Видео: 704x320 (2.20:1), 25 fps,DivX, 1748 kbps avg, 0.31 bit/pixel
Аудио: 48 kHz, MPEG Layer 3, 2 ch, ~128.00 kbps avg
Формат субтитров: softsub (ASS)

MediaInfo

Я буду пилотом\Ja.budu.pilotom.1968.DivX.DVDRip.alf62\Ja.budu.pilotom.1968.DivX.DVDRip.alf62.avi
Format : AVI
Format/Info : Audio Video Interleave
File size : 1.47 GiB
Duration : 1h 51mn
Overall bit rate : 1 882 Kbps
Writing application : VirtualDubMod 1.5.10.3 | www.virtualdub-fr.org || (build 2550/release)
Writing library : VirtualDubMod build 2550/release
Video
ID : 0
Format : MPEG-4 Visual
Format profile : Advanced Simple@L5
Format settings, BVOP : 2
Format settings, QPel : No
Format settings, GMC : No warppoints
Format settings, Matrix : Default (MPEG)
Codec ID : DX50
Codec ID/Hint : DivX 5
Duration : 1h 51mn
Bit rate : 1 745 Kbps
Width : 704 pixels
Height : 320 pixels
Display aspect ratio : 2.2:1
Frame rate : 25.000 fps
Color space : YUV
Chroma subsampling : 4:2:0
Bit depth : 8 bits
Scan type : Progressive
Compression mode : Lossy
Bits/(Pixel*Frame) : 0.310
Stream size : 1.36 GiB (93%)
Writing library : XviD 73
Audio
ID : 1
Format : MPEG Audio
Format version : Version 1
Format profile : Layer 3
Codec ID : 55
Codec ID/Hint : MP3
Duration : 1h 51mn
Bit rate mode : Constant
Bit rate : 128 Kbps
Channel count : 2 channels
Sampling rate : 48.0 KHz
Compression mode : Lossy
Stream size : 102 MiB (7%)
Alignment : Aligned on interleaves
Interleave, duration : 40 ms (1.00 video frame)
Interleave, preload duration : 504 ms
Writing library : LAME3.99r
Encoding settings : -m s -V 4 -q 2 -lowpass 17 -b 128

Скриншот c названием фильма

Скриншоты


Скачать

Скачать торрент! Я буду пилотом / Ah, yokaren / The Young Eagles of the Kamikaze (Синдзи Мураяма / Shinji Murayama) [1968, Япония, военный, драма, DVDRip] Sub Rus

Как скачивать? · Что такое торрент? · Рейтинг и ограничения

Сайт не распространяет и не хранит электронные версии произведений, а лишь предоставляет доступ к создаваемому пользователями каталогу ссылок на торрент-файлы, которые содержат только списки хеш-сумм

[Профиль] [ЛС]
Показать сообщения:    
Ответить на тему

Текущее время: Сегодня 20:39

Часовой пояс: GMT + 4



Вы не можете начинать темы
Вы не можете отвечать на сообщения
Вы не можете редактировать свои сообщения
Вы не можете удалять свои сообщения
Вы не можете голосовать в опросах
Вы не можете прикреплять файлы к сообщениям
Вы не можете скачивать файлы