Распутин (Жозе Дойанн, Ираклий Квирикадзе) [2013, Россия, драма, биография, история, BDRip 720p]

Ответить на тему
 
Автор Сообщение

user ®

Стаж: 7 лет 7 месяцев

Сообщений: 20008

Пост Пост: #1 от 10-Фев-2014 01:10

[Цитировать]

Распутин Страна: Россия Студия: Россия, B-Tween, ВГТРК
Жанр: драма, биография, история Год выпуска: 2013 Продолжительность: 01:23:02
Перевод: Не требуется Cубтитры: нет
Режиссер: Жозе Дойанн, Ираклий Квирикадзе
В ролях: Жерар Депардьё, Фанни Ардан, Владимир Машков, Анна Михалкова, Филипп Янковский, Ирина Алферова, Данила Козловский, Юрий Колокольников, Ксения Раппопорт, Константин Хабенский
Описание: Начало ХХ века, Европа охвачена войной, Российская империя на краю пропасти. Внезапное появление загадочного Григория Распутина в царских покоях вызывает волну негодования при дворе. Сибирский целитель облегчает страдания неизлечимо больного наследника престола, проповедует и творит чудеса. Императрица уверена, что всё не случайно и Григорий — божий человек, спаситель, посланный свыше. Ее уверенность разделяют далеко не все. Вокруг «святого беса» плетутся заговоры, его мистическая власть над царской семьей и нежная дружба с императрицей раздражают слишком многих. Россия, монархия и Распутин в эпицентре приближающейся катастрофы.
Сэмпл: http://multi-up.com/949405 Тип релиза: BDRip 720p Контейнер: MKV
Видео: MPEG-4 AVC, 4400 Кбит/с, 1280x690
Аудио: Русский (AC3, 6 ch, 640 Кбит/с)

MediaInfo

Общее
Уникальный идентификатор : 176239483922603999467549451322298095023 (0x84967D6D2A790C8682BB3D55AFBE55AF)
Полное имя : F:\МОИ РАЗДАЧИ\Распутин 2013 BDRip 720p.mkv
Формат : Matroska
Версия формата : Version 4 / Version 2
Размер файла : 2,92 Гбайт
Продолжительность : 1 ч. 23 м.
Общий поток : 5034 Кбит/сек
Название фильма : CMEGRoup
Дата кодирования : UTC 2010-02-22 21:41:31
Программа кодирования : mkvmerge v5.9.0 ('On The Loose') built on Dec 9 2012 15:37:01
Библиотека кодирования : libebml v1.3.0 + libmatroska v1.4.0
Видео
Идентификатор : 1
Формат : AVC
Формат/Информация : Advanced Video Codec
Профиль формата : High@L4.1
Параметр CABAC формата : Да
Параметр ReFrames формата : 9 кадров
Идентификатор кодека : V_MPEG4/ISO/AVC
Продолжительность : 1 ч. 23 м.
Битрейт : 4400 Кбит/сек
Ширина : 1280 пикселей
Высота : 690 пикселей
Соотношение сторон : 1,85:1
Режим частоты кадров : Постоянный
Частота кадров : 25,000 кадров/сек
Цветовое пространство : YUV
Субдискретизация насыщенности : 4:2:0
Битовая глубина : 8 бит
Тип развёртки : Прогрессивная
Бит/(Пиксели*Кадры) : 0.199
Размер потока : 2,49 Гбайт (85%)
Библиотека кодирования : x264 core 138 r2358 9e941d1
Настройки программы : cabac=1 / ref=9 / deblock=1:-3:-3 / analyse=0x3:0x113 / me=umh / subme=10 / psy=1 / psy_rd=1.00:0.00 / mixed_ref=1 / me_range=32 / chroma_me=1 / trellis=2 / 8x8dct=1 / cqm=0 / deadzone=21,11 / fast_pskip=1 / chroma_qp_offset=-2 / threads=6 / lookahead_threads=1 / sliced_threads=0 / nr=0 / decimate=1 / interlaced=0 / bluray_compat=0 / constrained_intra=0 / bframes=5 / b_pyramid=2 / b_adapt=1 / b_bias=0 / direct=2 / weightb=1 / open_gop=0 / weightp=2 / keyint=250 / keyint_min=25 / scenecut=40 / intra_refresh=0 / rc_lookahead=40 / rc=2pass / mbtree=1 / bitrate=4400 / ratetol=1.0 / qcomp=0.60 / qpmin=0 / qpmax=69 / qpstep=4 / cplxblur=20.0 / qblur=0.5 / vbv_maxrate=62500 / vbv_bufsize=78125 / nal_hrd=none / ip_ratio=1.40 / aq=1:1.00 / zones=118775,124559,q=40
Язык : English
Default : Да
Forced : Нет
Аудио
Идентификатор : 2
Формат : AC-3
Формат/Информация : Audio Coding 3
Расширение режима : CM (complete main)
Параметр Endianness формата : Big
Идентификатор кодека : A_AC3
Продолжительность : 1 ч. 23 м.
Вид битрейта : Постоянный
Битрейт : 640 Кбит/сек
Каналы : 6 каналов
Расположение каналов : Front: L C R, Side: L R, LFE
Частота : 48,0 КГц
Битовая глубина : 16 бит
Метод сжатия : С потерями
Размер потока : 380 Мбайт (13%)
Язык : Russian
Default : Нет
Forced : Нет

Скриншоты

Скачать

Скачать торрент!

Как скачивать? · Что такое торрент? · Рейтинг и ограничения

Сайт не распространяет и не хранит электронные версии произведений, а лишь предоставляет доступ к создаваемому пользователями каталогу ссылок на торрент-файлы, которые содержат только списки хеш-сумм

[Профиль] [ЛС]
Показать сообщения:    
Ответить на тему

Текущее время: Сегодня 13:53

Часовой пояс: GMT + 4



Вы не можете начинать темы
Вы не можете отвечать на сообщения
Вы не можете редактировать свои сообщения
Вы не можете удалять свои сообщения
Вы не можете голосовать в опросах
Вы не можете прикреплять файлы к сообщениям
Вы не можете скачивать файлы