Грязная Дюжина: Роковая миссия / Грязная дюжина: Фатальное задание / The Dirty Dozen: The Fatal Mission (Ли Х. Кацин / Lee H. Katzin) [1988, США, Югославия, Италия, военный, боевик, драма, HDTV 1080i] 2xDVO + original (eng)

Ответить на тему
 
Автор Сообщение

user ®

Стаж: 7 лет 7 месяцев

Сообщений: 20008

Пост Пост: #1 от 10-Фев-2014 01:10

[Цитировать]

Грязная Дюжина: Роковая миссия / Грязная дюжина: Фатальное задание / The Dirty Dozen: The Fatal Mission
Год выпуска: 1988
Страна: США, Югославия, Италия
Жанр: военный, боевик, драма
Продолжительность: 01:31:02
Перевод1: Профессиональный (двухголосый, закадровый)(НТВ+)
Перевод2: Профессиональный (двухголосый, закадровый)
Субтитры: отсутствуют
Оригинальная аудиодорожка: английский
Режиссер: Ли Х. Кацин / Lee H. Katzin
В ролях: Телли Савалас, Эрнест Боргнайн, Хант Блок, Мэттью Бертон, Джефф Конэвей, Алекс Корд, Эрик Эстрада...
Описание: Майор Райт, ведущий группу коммандос в оккупированной нацистами Дании должна встретится с агентом капитаном Карлом Людвиг. Но он застрелен патрулём. Прежде, чем он умер, произнёс фразу: 2420, значение которой никто не понял. В Англии Майор Райт, генерал Уорден, Лейтенант Кэрол Кэмпбэл и британский полковник ведут обсуждение, что означали слова капитана Людвига. Майор Райт набирает отряд из 12 военных заключенных, приговоренных трибуналом к смертной казни и длительным срокам каторги за тяжкие преступления, которые поедут в специальном поезде №2420, чтобы разгадать смысл операции немцев.
Качество: HDTV 1080i
Формат: MKV
Видео кодек: H.264
Аудио кодек: AC3
Видео: 1920 x 1080; 25 fps; 7 546 Kbps
Аудио1: Русский, AC3 2.0 192 Kbps 48,0 КГц(NTV+)
Аудио2: Русский, AC3 2.0 192 Kbps 48,0 КГц(DVO)
Аудио3: English, AC3 2.0 384 Kbps 48,0 КГц(Original)

MediaInfo

D:\HDFILMS\The.Dirty.Dozen.The.Fatal.Mission.1988.HDTV.1080i.2xRus.Eng.mkv
General
Unique ID : 243393393989536750753581724477374930315 (0xB71BDCD1B7E969F18B81AB71B4F91D8B)
Complete name : D:\HDFILMS\The.Dirty.Dozen.The.Fatal.Mission.1988.HDTV.1080i.2xRus.Eng.mkv
Format : Matroska
File size : 5.39 GiB
Duration : 1h 31mn
Overall bit rate : 8 483 Kbps
Movie name : The Dirty Dozen - The Fatal Mission
Encoded date : UTC 2014-02-09 08:21:23
Writing application : mkvmerge v6.2.0 ('Promised Land') built on Apr 28 2013 12:22:01
Writing library : libebml v1.3.0 + libmatroska v1.4.0
Video #1
ID : 1
Format : AVC
Format/Info : Advanced Video Codec
Format profile : High@L4.0
Format settings, CABAC : Yes
Format settings, ReFrames : 4 frames
Format settings, GOP : M=1, N=10
Codec ID : V_MPEG4/ISO/AVC
Duration : 1h 31mn
Bit rate : 7 546 Kbps
Width : 1 920 pixels
Height : 1 080 pixels
Display aspect ratio : 16:9
Frame rate : 50.000 fps
Original frame rate : 25.000 fps
Standard : Component
Color space : YUV
Chroma subsampling : 4:2:0
Bit depth : 8 bits
Scan type : Interlaced
Scan order : Top Field First
Bits/(Pixel*Frame) : 0.073
Stream size : 4.80 GiB (89%)
Title : The Dirty Dozen - The Fatal Mission 1988 1080p HDTV H.264 DD2.0-saMMie
Color primaries : BT.709-5, BT.1361, IEC 61966-2-4, SMPTE RP177
Transfer characteristics : BT.709-5, BT.1361
Matrix coefficients : BT.709-5, BT.1361, IEC 61966-2-4 709, SMPTE RP177
Audio #2
ID : 2
Format : AC-3
Format/Info : Audio Coding 3
Mode extension : CM (complete main)
Codec ID : A_AC3
Duration : 1h 31mn
Bit rate mode : Constant
Bit rate : 192 Kbps
Channel(s) : 2 channels
Channel positions : Front: L R
Sampling rate : 48.0 KHz
Bit depth : 16 bits
Compression mode : Lossy
Stream size : 125 MiB (2%)
Title : NTV+ AC3 2.0 192 kbps
Language : Russian
Audio #3
ID : 3
Format : AC-3
Format/Info : Audio Coding 3
Mode extension : CM (complete main)
Codec ID : A_AC3
Duration : 1h 31mn
Bit rate mode : Constant
Bit rate : 192 Kbps
Channel(s) : 2 channels
Channel positions : Front: L R
Sampling rate : 48.0 KHz
Bit depth : 16 bits
Compression mode : Lossy
Stream size : 125 MiB (2%)
Title : DVO AC3 2.0 192 kbps
Language : Russian
Audio #4
ID : 4
Format : AC-3
Format/Info : Audio Coding 3
Mode extension : CM (complete main)
Codec ID : A_AC3
Duration : 1h 31mn
Bit rate mode : Constant
Bit rate : 384 Kbps
Channel(s) : 2 channels
Channel positions : Front: L R
Sampling rate : 48.0 KHz
Bit depth : 16 bits
Compression mode : Lossy
Stream size : 250 MiB (5%)
Title : Original AC3 2.0 384 kbps
Language : English

Скриншоты

Скачать

Скачать торрент!

Как скачивать? · Что такое торрент? · Рейтинг и ограничения

Сайт не распространяет и не хранит электронные версии произведений, а лишь предоставляет доступ к создаваемому пользователями каталогу ссылок на торрент-файлы, которые содержат только списки хеш-сумм

[Профиль] [ЛС]
Показать сообщения:    
Ответить на тему

Текущее время: Сегодня 14:33

Часовой пояс: GMT + 4



Вы не можете начинать темы
Вы не можете отвечать на сообщения
Вы не можете редактировать свои сообщения
Вы не можете удалять свои сообщения
Вы не можете голосовать в опросах
Вы не можете прикреплять файлы к сообщениям
Вы не можете скачивать файлы