Призрачное лицо / The Ghostly Face / Gui mian ren / Gui bai ren (Ён Сайхин / Yeung Sai-Hing) [1972, Гонконг, Индонезия, боевые искусства, VHSRip] VO (Ghostface)

Ответить на тему
 
Автор Сообщение

user ®

Стаж: 11 лет

Сообщений: 15151

Пост Пост: #1 от 09-Фев-2014 22:00

[Цитировать]

Призрачное лицо / The Ghostly Face / Gui mian ren / Gui bai ren
Страна: Гонконг, Индонезия
Жанр: боевые искусства
Год выпуска: 1972
Продолжительность: 01:22:17
Перевод: Одноголосый закадровый Ghostface
Cубтитры: английские, китайские
Режиссер: Ён Сайхин / Yeung Sai-Hing
В ролях: Полли Куан, Чэнь Хуэйлоу, Дэдди Сутомо, Чэнь Баолян, Ду Вэйхэ, Ду Вэньбо, Ленни Марлэйна, Чэнь Чу
Описание: Призрачное лицо-герой, который носит маску монстра и совершает добрые дела. Но, однажды его подставили убив отца девушки и украв его драгоценный меч. Эта девушка жаждет мести и отправляется на его поиски, попутно встретив ещё одну девушку, разыскивающую его. Вместе они отправляются на его поиски. Остаётся лишь выяснить, кем же на самом деле является Призрачное лицо...
Сэмпл: http://multi-up.com/949313
Качество видео: VHSRip
Формат видео: AVI
Видео: 720x400 (1.80:1), 25 fps, XviD build 50 ~2239 kbps avg, 0.31 bit/pixel
Аудио: 48 kHz, MPEG Layer 3, 2 ch, ~128.00 kbps avg
Формат субтитров: hardsub (неотключаемые)

MediaInfo

Format : AVI
Format/Info : Audio Video Interleave
File size : 1,37 Гбайт
Duration : 1 ч. 22 м.
Overall bit rate : 2377 Кбит/сек
Writing application : VirtualDubMod 1.5.10.3 | www.virtualdub-fr.org || (build 2550/release)
Writing library : VirtualDubMod build 2550/release
Видео
ID : 0
Format : MPEG-4 Visual
Format profile : Advanced Simple@L5
Format settings, BVOP : 2
Format settings, QPel : Нет
Format settings, GMC : Без точки перехода
Format settings, Matrix : Default (MPEG)
Codec ID : XVID
Codec ID/Hint : XviD
Duration : 1 ч. 22 м.
Bit rate : 2240 Кбит/сек
Width : 720 пикселей
Height : 400 пикселей
Display aspect ratio : 16:9
Frame rate : 25,000 кадров/сек
Color space : YUV
Chroma subsampling : 4:2:0
Bit depth : 8 бит
Scan type : Прогрессивная
Compression mode : С потерями
Bits/(Pixel*Frame) : 0.311
Stream size : 1,29 Гбайт (94%)
Writing library : XviD 1.2.1 (UTC 2008-12-04)
Аудио
ID : 1
Format : MPEG Audio
Format version : Version 1
Format profile : Layer 3
Codec ID : 55
Codec ID/Hint : MP3
Duration : 1 ч. 22 м.
Bit rate mode : Постоянный
Bit rate : 128 Кбит/сек
Channel(s) : 2 канала
Sampling rate : 48,0 КГц
Compression mode : С потерями
Stream size : 75,3 Мбайт (5%)
Alignment : Соединение по промежуткам
Interleave, duration : 40 мс. (1,00 видеокадр)
Interleave, preload duration : 504 мс.
Writing library : LAME3.99r
Encoding settings : -m s -V 4 -q 2 -lowpass 17 -b 128

Скриншот c названием фильма

Скриншоты

Скачать

Скачать торрент! Призрачное лицо / The Ghostly Face / Gui mian ren / Gui bai ren (Ён Сайхин / Yeung Sai-Hing) [1972, Гонконг, Индонезия, боевые искусства, VHSRip] VO (Ghostface)

Как скачивать? · Что такое торрент? · Рейтинг и ограничения

Сайт не распространяет и не хранит электронные версии произведений, а лишь предоставляет доступ к создаваемому пользователями каталогу ссылок на торрент-файлы, которые содержат только списки хеш-сумм

[Профиль] [ЛС]
Показать сообщения:    
Ответить на тему

Текущее время: Сегодня 19:23

Часовой пояс: GMT + 4



Вы не можете начинать темы
Вы не можете отвечать на сообщения
Вы не можете редактировать свои сообщения
Вы не можете удалять свои сообщения
Вы не можете голосовать в опросах
Вы не можете прикреплять файлы к сообщениям
Вы не можете скачивать файлы