Я тебя никогда не забуду (Рано Кубаева) [2013, Россия, мелодрама, HDTV 1080i] Original Rus

Ответить на тему
 
Автор Сообщение

user ®

Стаж: 7 лет 7 месяцев

Сообщений: 20008

Пост Пост: #1 от 09-Фев-2014 22:00

[Цитировать]

Я тебя никогда не забуду
Страна: Россия
Студия: Русское
Жанр: мелодрама
Год выпуска: 2013
Продолжительность: 01:25:00
Перевод: Не требуется
Cубтитры: нет
Оригинальная аудиодорожка: русский
Режиссер: Рано Кубаева
В ролях: Екатерина Климова, Анатолий Белый, Виталий Хаев, Анастасия Лапина, Павел Юлку, Сергей Губанов, Артём Казьмин, Марта Дроздова, Елизавета Васильева
Описание: Вера – жена олигарха, дама с несносным характером по прозвищу Мымра. Больше всего попреков достается ее водителю Сергею, тайно влюбленному в свою капризную хозяйку.
Вероятно, эта любовь так и осталась бы тайной, если бы судьба не сыграла с Верой злую шутку. В автокатастрофе героиня полностью теряет память, а, придя в себя, «узнаёт», что она жена Сергея, примерная хозяйка и учительница младших классов, беззаветно любящая свою большую семью…


Сэмпл: http://multi-up.com/948915
Тип релиза: HDTV 1080i
Контейнер: TS
Видео: MPEG4 Video (H264) 1920x1080 (16:9), 25 fps, 9.7 Mbps, 0.187 bit/pixel
Аудио: MPEG Audio, 2 ch, 48 kHz, 192 kbps

MediaInfo

General
ID : 1 (0x1)
Complete name : C:\Я тебя никогда не забуду_2013_HDTV 1080i.ts
Format : MPEG-TS
File size : 6.23 GiB
Duration : 1h 25mn
Overall bit rate mode : Variable
Overall bit rate : 10.4 Mbps
Video
ID : 1311 (0x51F)
Menu ID : 1 (0x1)
Format : AVC
Format/Info : Advanced Video Codec
Format profile : Main@L4.0
Format settings, CABAC : Yes
Format settings, ReFrames : 3 frames
Codec ID : 27
Duration : 1h 25mn
Bit rate : 9 715 Kbps
Width : 1 920 pixels
Height : 1 080 pixels
Display aspect ratio : 16:9
Frame rate : 25.000 fps
Standard : Component
Color space : YUV
Chroma subsampling : 4:2:0
Bit depth : 8 bits
Scan type : Interlaced
Scan order : Top Field First
Bits/(Pixel*Frame) : 0.187
Stream size : 5.81 GiB (93%)
Color primaries : BT.709
Transfer characteristics : BT.709
Matrix coefficients : BT.709
Audio
ID : 1312 (0x520)
Menu ID : 1 (0x1)
Format : MPEG Audio
Format version : Version 1
Format profile : Layer 2
Codec ID : 3
Duration : 1h 25mn
Bit rate mode : Constant
Bit rate : 192 Kbps
Channel(s) : 2 channels
Sampling rate : 48.0 KHz
Compression mode : Lossy
Stream size : 118 MiB (2%)
Language : Russian

Скриншоты

Скачать

Скачать торрент!

Как скачивать? · Что такое торрент? · Рейтинг и ограничения

Сайт не распространяет и не хранит электронные версии произведений, а лишь предоставляет доступ к создаваемому пользователями каталогу ссылок на торрент-файлы, которые содержат только списки хеш-сумм

[Профиль] [ЛС]
Показать сообщения:    
Ответить на тему

Текущее время: Сегодня 12:29

Часовой пояс: GMT + 4



Вы не можете начинать темы
Вы не можете отвечать на сообщения
Вы не можете редактировать свои сообщения
Вы не можете удалять свои сообщения
Вы не можете голосовать в опросах
Вы не можете прикреплять файлы к сообщениям
Вы не можете скачивать файлы