Добро пожаловать в джунгли / Welcome to the Jungle (Роб Мелцер / Rob Meltzer) [2013, Пуэрто Рико, США, Великобритания, Комедия, BDRip 1080p] DVO + Original Eng

Ответить на тему
 
Автор Сообщение

user ®

Стаж: 7 лет 7 месяцев

Сообщений: 20008

Пост Пост: #1 от 09-Фев-2014 22:00

[Цитировать]

Добро пожаловать в джунгли / Welcome to the Jungle
Страна: Пуэрто Рико, США, Великобритания
Студия: Pimienta, Private Island Trax, Salt Company International, The, Stun Creative
Жанр: Комедия
Год выпуска: 2013
Продолжительность: 01:34:13
Перевод: Любительский (двухголосый закадровый)
Cубтитры: нет
Оригинальная аудиодорожка: английский
Режиссер: Роб Мелцер / Rob Meltzer
В ролях: Адам Броди, Жан-Клод Ван Дамм, Роб Хюбел, Кристен Шаал, Меган Бун, Деннис Хейсбёрт, Бьянка Бри, Эрик Эдельштейн, Роберт Питерс, Аарон Такахаси
Описание: Персонал дизайнерской фирмы отправляется в отпуск на тропический остров. Коллективный отдых заканчивается самым настоящим хаосом, когда герои сталкиваются с первыми серьезными трудностями.

Тип релиза: BDRip 1080p
Контейнер: MKV
Видео: MPEG-4 AVC, 23.976 fps, 9351 Кбит/с, 1920x800
Аудио: Русский AC3, 6 ch, 48.0 KHz, 448 Кбит/с
Аудио 2: английский DTS, 6 ch, 48.0 KHz, 1509 Кбит/c

Дополнительная информация

Награды
Кинофестиваль в Ньюпорт Бич. США. 2013 год.
Победитель (1):
Выдающиеся достижения в кинематографии - лучший актерский ансамбль
Интересно
Фильм Джонатана Хенсли, написавшего сценарии для: Армагеддон, Джуманджи, Крепкий орешек 3: Возмездие

MediaInfo

General
Unique ID : 195226044922626331658020939821590083504 (0x92DF2B28537AF28695A811F97D7177B0)
Complete name : F:\BD torrent\DVDRIPS\Dobro.Pojalovat.v.Djungli.2013.P2.BDRip.1080p.mkv
Format : Matroska
Format version : Version 2
File size : 7.44 GiB
Duration : 1h 34mn
Overall bit rate : 11.3 Mbps
Encoded date : UTC 2014-02-08 18:53:14
Writing application : mkvmerge v6.7.0 ('Back to the Ground') 32bit built on Jan 8 2014 15:03:17
Writing library : libebml v1.3.0 + libmatroska v1.4.1
Video
ID : 1
Format : AVC
Format/Info : Advanced Video Codec
Format profile : High@L4.0
Format settings, CABAC : Yes
Format settings, ReFrames : 5 frames
Codec ID : V_MPEG4/ISO/AVC
Duration : 1h 34mn
Bit rate : 9 351 Kbps
Width : 1 920 pixels
Height : 800 pixels
Display aspect ratio : 2.40:1
Frame rate mode : Constant
Frame rate : 23.976 fps
Color space : YUV
Chroma subsampling : 4:2:0
Bit depth : 8 bits
Scan type : Progressive
Bits/(Pixel*Frame) : 0.254
Stream size : 6.01 GiB (81%)
Writing library : x264 core 140 r2377 1ca7bb9
Encoding settings : cabac=1 / ref=5 / deblock=1:0:0 / analyse=0x3:0x133 / me=umh / subme=7 / psy=1 / psy_rd=1.00:0.00 / mixed_ref=1 / me_range=16 / chroma_me=1 / trellis=1 / 8x8dct=1 / cqm=0 / deadzone=21,11 / fast_pskip=0 / chroma_qp_offset=-2 / threads=6 / lookahead_threads=1 / sliced_threads=0 / nr=0 / decimate=1 / interlaced=0 / bluray_compat=0 / constrained_intra=0 / bframes=3 / b_pyramid=2 / b_adapt=2 / b_bias=0 / direct=3 / weightb=1 / open_gop=0 / weightp=2 / keyint=250 / keyint_min=23 / scenecut=40 / intra_refresh=0 / rc_lookahead=50 / rc=2pass / mbtree=1 / bitrate=9351 / ratetol=1.0 / qcomp=0.60 / qpmin=0 / qpmax=69 / qpstep=4 / cplxblur=20.0 / qblur=0.5 / ip_ratio=1.40 / aq=1:1.00
Language : English
Default : Yes
Forced : No
Audio #1
ID : 2
Format : AC-3
Format/Info : Audio Coding 3
Mode extension : CM (complete main)
Format settings, Endianness : Big
Codec ID : A_AC3
Duration : 1h 34mn
Bit rate mode : Constant
Bit rate : 448 Kbps
Channel(s) : 6 channels
Channel positions : Front: L C R, Side: L R, LFE
Sampling rate : 48.0 KHz
Bit depth : 16 bits
Compression mode : Lossy
Stream size : 302 MiB (4%)
Language : Russian
Default : Yes
Forced : No
Audio #2
ID : 3
Format : DTS
Format/Info : Digital Theater Systems
Mode : 16
Format settings, Endianness : Big
Codec ID : A_DTS
Duration : 1h 34mn
Bit rate mode : Constant
Bit rate : 1 509 Kbps
Channel(s) : 6 channels
Channel positions : Front: L C R, Side: L R, LFE
Sampling rate : 48.0 KHz
Bit depth : 24 bits
Compression mode : Lossy
Stream size : 1 017 MiB (13%)
Language : English
Default : No
Forced : No
Menu
00:00:00.000 : en:00:00:00.000
00:07:37.415 : en:00:07:37.415
00:16:20.813 : en:00:16:20.813
00:22:29.431 : en:00:22:29.431
00:30:31.872 : en:00:30:31.872
00:37:32.167 : en:00:37:32.167
00:44:06.727 : en:00:44:06.727
00:54:38.901 : en:00:54:38.901
01:05:44.983 : en:01:05:44.983
01:10:06.452 : en:01:10:06.452
01:24:13.632 : en:01:24:13.632
01:28:57.916 : en:01:28:57.916

Скриншоты

Скачать

Скачать торрент!

Как скачивать? · Что такое торрент? · Рейтинг и ограничения

Сайт не распространяет и не хранит электронные версии произведений, а лишь предоставляет доступ к создаваемому пользователями каталогу ссылок на торрент-файлы, которые содержат только списки хеш-сумм

[Профиль] [ЛС]
Показать сообщения:    
Ответить на тему

Текущее время: Сегодня 02:17

Часовой пояс: GMT + 4



Вы не можете начинать темы
Вы не можете отвечать на сообщения
Вы не можете редактировать свои сообщения
Вы не можете удалять свои сообщения
Вы не можете голосовать в опросах
Вы не можете прикреплять файлы к сообщениям
Вы не можете скачивать файлы