Настоящие гении / Real Genius (Марта Кулидж / Martha Coolidge) [1985, США, фантастика, мелодрама, комедия, WEB-DL 720p] MVO + AVO + Sub Eng + Original Eng

Ответить на тему
 
Автор Сообщение

user ®

Стаж: 7 лет 7 месяцев

Сообщений: 20008

Пост Пост: #1 от 09-Фев-2014 22:00

[Цитировать]

Настоящие гении / Real Genius Страна: США
Студия: Delphi III
Жанр: фантастика, мелодрама, комедия
Год выпуска: 1985
Продолжительность: 01:45:54
Перевод 1: Профессиональный (многоголосый закадровый) [1 канала]
Перевод 2: Авторский (одноголосый закадровый) [А.Михалёв]
Cубтитры: английские
Оригинальная аудиодорожка: английский
Режиссер: Марта Кулидж / Martha Coolidge
В ролях: Вэл Килмер, Гэбриел Джаррет, Мишель Майринк, Уильям Этертон, Джон Грайз, Патти Д’Арбанвиль, Стэйси Пералта, Даниэль Адес, Андрес Айбар, Луис Гьямбалво, Эд Лотер, ДжоЭнн Уиллетт, Джоэнн Барон, Дин Девлин, Юдзи Окумото, Линда Вайсмейер, Пенни Бэйкер, Джон Василий, Дебора Формен, Джинн Мори
Описание: Юный гений Митч поступает в университет в 15 лет. Его соседом по комнате оказывается другой молодой талант, Крис Найт, предводитель компании самых способных студентов университета.
В рамках исследовательского проекта одного из профессоров ребята разрабатывают высокомощный лазер, однако профессор похищает его, чтобы продать военным для использования в качестве оружия. Студенты взламывают механизм управления лазером и срывают планы профессора…- -Тип релиза: WEB-DL 720p
Контейнер: MKV
Видео: MPEG-4 AVC Video, 1280x540 / 2,40:1 (16:9) / ~ 4228 kbps / 23,976 fps / Main@L3.1
Аудио 1: Russian: AC3, 2.0 ch, 192 kbps, 48 kHz | многоголосый
Аудио 2: Russian: AC3, 2.0 ch, 192 kbps, 48 kHz | одноголосый
Аудио 3: English: AAC (LC), 2.0 ch, ~160 kbps, 48 kHz (iTunes)
Формат субтитров: softsub (SRT)
Главы: подписаны

MediaInfo

Общее
Уникальный идентификатор : 198716734603403795775265116894849340749 (0x957F737244D4FB96B37A1749CB0F154D)
Полное имя : N:\Настоящие гении 1985.WEB-DL.720p.ПМ.АО.Eng.mkv
Формат : Matroska
Версия формата : Version 4 / Version 2
Размер файла : 3,53 Гбайт
Продолжительность : 1 ч. 45 м.
Общий поток : 4772 Кбит/сек
Название фильма : Real Genius (1985)
Дата кодирования : UTC 2014-02-09 13:10:56
Программа кодирования : mkvmerge v6.6.0 ('The Edge Of The In Between') built on Dec 18 2013 23:19:42
Библиотека кодирования : libebml v1.3.0 + libmatroska v1.4.1
Видео
Идентификатор : 1
Формат : AVC
Формат/Информация : Advanced Video Codec
Профиль формата : Main@L3.1
Параметр CABAC формата : Нет
Параметр ReFrames формата : 2 кадра
Идентификатор кодека : V_MPEG4/ISO/AVC
Продолжительность : 1 ч. 45 м.
Ширина : 1280 пикселей
Высота : 540 пикселей
Соотношение сторон : 2,40:1
Режим частоты кадров : Постоянный
Частота кадров : 23,976 кадра/сек
Цветовое пространство : YUV
Субдискретизация насыщенности : 4:2:0
Битовая глубина : 8 бит
Тип развёртки : Прогрессивная
Язык : English
Default : Да
Forced : Нет
Основные цвета : BT.709
Характеристики трансфера : BT.709
Коэффициенты матрицы : BT.709
Аудио #1
Идентификатор : 2
Формат : AC-3
Формат/Информация : Audio Coding 3
Расширение режима : CM (complete main)
Параметр Endianness формата : Big
Идентификатор кодека : A_AC3
Продолжительность : 1 ч. 45 м.
Вид битрейта : Постоянный
Битрейт : 192 Кбит/сек
Каналы : 2 канала
Расположение каналов : Front: L R
Частота : 48,0 КГц
Битовая глубина : 16 бит
Метод сжатия : С потерями
Размер потока : 145 Мбайт (4%)
Заголовок : AC3 2.0ch 192kbps - многоголосый (1 канала)
Язык : Russian
Default : Да
Forced : Нет
Аудио #2
Идентификатор : 3
Формат : AC-3
Формат/Информация : Audio Coding 3
Расширение режима : CM (complete main)
Параметр Endianness формата : Big
Идентификатор кодека : A_AC3
Продолжительность : 1 ч. 45 м.
Вид битрейта : Постоянный
Битрейт : 192 Кбит/сек
Каналы : 2 канала
Расположение каналов : Front: L R
Частота : 48,0 КГц
Битовая глубина : 16 бит
Метод сжатия : С потерями
Размер потока : 145 Мбайт (4%)
Заголовок : AC3 2.0ch 192kbps - одноголосый (Михалёв)
Язык : Russian
Default : Нет
Forced : Нет
Аудио #3
Идентификатор : 4
Формат : AAC
Формат/Информация : Advanced Audio Codec
Профиль формата : LC
Идентификатор кодека : A_AAC
Продолжительность : 1 ч. 45 м.
Каналы : 2 канала
Расположение каналов : Front: L R
Частота : 48,0 КГц
Метод сжатия : С потерями
Заголовок : AAC (LC) 2.0ch ~160kbps - original
Язык : English
Default : Нет
Forced : Нет
Текст
Идентификатор : 5
Формат : UTF-8
Идентификатор кодека : S_TEXT/UTF8
Идентификатор кодека/Информация : UTF-8 Plain Text
Язык : English
Default : Нет
Forced : Нет
Меню
00:00:00.000 : en:Start
00:02:18.000 : en:The Crossbow Project
00:03:37.000 : en:A secret weapons meeting
00:05:51.000 : en:Mitch Taylor
00:09:04.000 : en:Chris Knight
00:12:04.000 : en:Mitch meets Chris
00:19:19.000 : en:Smart People on Ice
00:26:54.000 : en:School daze
00:30:16.000 : en:Hollyfeld's lair
00:32:58.000 : en:Chris & Jerry
00:38:54.000 : en:Tanning Invitational
00:40:45.000 : en:EVERYTHING
00:47:57.000 : en:"I was just like you."
00:51:17.000 : en:Getting even
00:52:49.000 : en:Back and Jerry's house
00:57:13.000 : en:Getting the laser to fire
01:00:26.000 : en:Lazlo Hollyfeld
01:02:33.000 : en:Mitch meets Sherry
01:05:55.000 : en:The final exam
01:11:32.000 : en:A giant step forward
01:18:15.000 : en:A conversation with Jesus
01:21:43.000 : en:Preparing the target
01:23:53.000 : en:Entering the base
01:26:05.000 : en:System found and modified
01:31:21.000 : en:A message from Jesus
01:32:36.000 : en:The test
01:36:42.000 : en:Giving Kent a sign
01:39:56.000 : en:Lazlo wins big

-

Скриншот с названием фильма

Скачать

Скачать торрент!

Как скачивать? · Что такое торрент? · Рейтинг и ограничения

Сайт не распространяет и не хранит электронные версии произведений, а лишь предоставляет доступ к создаваемому пользователями каталогу ссылок на торрент-файлы, которые содержат только списки хеш-сумм

[Профиль] [ЛС]
Показать сообщения:    
Ответить на тему

Текущее время: Сегодня 04:19

Часовой пояс: GMT + 4



Вы не можете начинать темы
Вы не можете отвечать на сообщения
Вы не можете редактировать свои сообщения
Вы не можете удалять свои сообщения
Вы не можете голосовать в опросах
Вы не можете прикреплять файлы к сообщениям
Вы не можете скачивать файлы