История двух сестер / Janghwa, Hongryeon / A Tale of Two Sisters (Ким Чжи Ун / Kim Ji Woon) [2003, Корея Южная, ужасы, триллер, драма, детектив, BDRip] AVO (Визгунов)

Ответить на тему
 
Автор Сообщение

user ®

Стаж: 11 лет

Сообщений: 15151

Пост Пост: #1 от 09-Фев-2014 18:50

[Цитировать]

История двух сестер / Janghwa, Hongryeon
Страна: Корея Южная
Жанр: ужасы, триллер, драма, детектив
Год выпуска: 2003
Продолжительность: 01:54:33
Перевод: Авторский (одноголосый закадровый) Визгунов Сергей
Cубтитры: нет
Режиссер: Ким Чжи Ун / Kim Ji Woon
В ролях: Ким Кап Су, Ём Чон А, Им Су Чон, Мун Гын Ён, Сенг-Би Ли
Описание: Две сестры возвращаются в дом своего отца и мачехи после продолжительного пребывания в психиатрической лечебнице. Ситуация в доме носит напряженный характер, так как состояние мачехи весьма несбалансированное. Вскоре в доме начинают происходить странные вещи, сёстрам кажется, что внутри есть кто-то еще…
Доп. информация:
Качество видео: BDRip | delo2006/1080p BD-Remux
Формат видео: AVI
Видео: 720x400 (1.80:1), 23.976 fps, XviD build 73 ~1616 kbps avg, 0.23 bit/pixel
Аудио: 48 kHz, AC3 Dolby Digital, 2/0 (L,R) ch, ~192 kbps

MediaInfo

Общее
Полное имя : C:\Documents and Settings\Пользователь\Рабочий стол\Торрентс.ру\Janghwa.Hongryeon.2003.BDRip.AVO_by_LBS.avi
Формат : AVI
Формат/Информация : Audio Video Interleave
Размер файла : 1,45 Гбайт
Продолжительность : 1 ч. 54 м.
Общий поток : 1818 Кбит/сек
Режиссёр : Last Boy Scout
Программа кодирования : VirtualDubMod 1.5.10.3 | www.virtualdub-fr.org || (build 2550/release)
Правообладатель : *** 09.02.2014
Примечание : BDRip AVO (Визгунов)
Видео
Идентификатор : 0
Формат : MPEG-4 Visual
Профиль формата : Advanced Simple@L5
Параметр BVOP формата : 1
Параметр QPel формата : Нет
Параметр GMC формата : Без точки перехода
Параметр матрицы формата : Выборочная
Идентификатор кодека : XVID
Идентификатор кодека/Подсказка : XviD
Продолжительность : 1 ч. 54 м.
Битрейт : 1617 Кбит/сек
Ширина : 720 пикселей
Высота : 400 пикселей
Соотношение сторон : 16:9
Частота кадров : 23,976 кадра/сек
Цветовое пространство : YUV
Субдискретизация насыщенности : 4:2:0
Битовая глубина : 8 бит
Тип развёртки : Прогрессивная
Метод сжатия : С потерями
Бит/(Пиксели*Кадры) : 0.234
Размер потока : 1,29 Гбайт (89%)
Библиотека кодирования : XviD 73
Аудио
Идентификатор : 1
Формат : AC-3
Формат/Информация : Audio Coding 3
Расширение режима : CM (complete main)
Параметр Endianness формата : Big
Идентификатор кодека : 2000
Продолжительность : 1 ч. 54 м.
Вид битрейта : Постоянный
Битрейт : 192 Кбит/сек
Каналы : 2 канала
Расположение каналов : Front: L R
Частота : 48,0 КГц
Битовая глубина : 16 бит
Метод сжатия : С потерями
Размер потока : 157 Мбайт (11%)
Выравнивание : Разделение по промежуткам
Продолжительность промежутка : 42 мс. (1,00 видеокадр)
Время предзагрузки промежутка : 500 мс.

Скриншоты

Скачать

Скачать торрент! История двух сестер / Janghwa, Hongryeon / A Tale of Two Sisters (Ким Чжи Ун / Kim Ji Woon) [2003, Корея Южная, ужасы, триллер, драма, детектив, BDRip] AVO (Визгунов)

Как скачивать? · Что такое торрент? · Рейтинг и ограничения

Сайт не распространяет и не хранит электронные версии произведений, а лишь предоставляет доступ к создаваемому пользователями каталогу ссылок на торрент-файлы, которые содержат только списки хеш-сумм

[Профиль] [ЛС]
Показать сообщения:    
Ответить на тему

Текущее время: Сегодня 10:15

Часовой пояс: GMT + 4



Вы не можете начинать темы
Вы не можете отвечать на сообщения
Вы не можете редактировать свои сообщения
Вы не можете удалять свои сообщения
Вы не можете голосовать в опросах
Вы не можете прикреплять файлы к сообщениям
Вы не можете скачивать файлы