Король комедии / King of comedy, The (Мартин Скорсезе / Martin Scorsese) [1982, США, драма, комедия, WEB-DL 720p] AVO (Горчаков) + DVO + Sub Rus, Eng + Original Eng

Ответить на тему
 
Автор Сообщение

user ®

Стаж: 7 лет 7 месяцев

Сообщений: 20008

Пост Пост: #1 от 09-Фев-2014 18:50

[Цитировать]

Король комедии / King of comedy, The
Страна: США
Студия: 20th Century Fox Film Corporation
Жанр: драма, комедия
Год выпуска: 1982
Продолжительность: 01:49:10
Перевод 1: Авторский (одноголосый закадровый) ВАСИЛИЙ ГОРЧАКОВ
Перевод 2: Профессиональный (двухголосый закадровый)
Cубтитры: русские, английские
Оригинальная аудиодорожка: английский
Режиссер: Мартин Скорсезе / Martin Scorsese
В ролях: Роберт Де Ниро /Robert De Niro/, Джерри Льюис /Jerry Lewis/, Сандра Бернхард /Sandra Bernhard/, Дайэнн Эбботт /Diahnne Abbott/, Шелли Хэк /Shelley Hack/, Тони Рэндолл /Tony Randall/, Телма Скунмэйкер /Thelma Schoonmaker/
Описание: Тонкое соединение жанров черной комедии и драмы. Де Ниро с блеском играет Руперта Папкина, человека, помешанного на автографах. Он убежден, что может стать самым великим комиком. Льюис играет популярного телеведущего. Папкин придумывает весьма странный план, как попасть в его программу. Сюжет, созданный пером кинокритика Пола Д. Зиммермэна, погружает в весьма специфичный мир шоу-бизнеса и эстрады, в котором состояния делаются и теряются очень быстро, а жизнь может сложиться удачно или быть потрачена впустую. (Иванов М.)
Альтернативное описание: На заре своей карьеры Роберт Де Ниро был далёк от амплуа, в котором зритель привык его видеть. А уж комедий в багаже Мастера вообще раз-два и обчёлся. И именно поэтому ранний фильм «Король комедии» и ценен вдвойне. Здесь Де Ниро предстаёт в роли недооценённого комика Руперта Папкина, который хочет своим комедийным талантом покорить мир. Но проблема в том, что этого комедийного таланта-то скорее всего и нет. И в этом заключается главная трагедия картины. Де Ниро блестяще справился со своей ролью.
Также поразил и Мартин Скорсезе абсолютно нетипичным для себя фильмом. Здесь нет стрельбы, погоней и прочих привычных атрибутов Скорсезе. Это не «Таксист» и не «Бешеный бык». Здесь есть только величайший Де Ниро во всей красе своего таланта и сцена. Что ещё нужно великому актёру?
И, конечно же, я не могу не отметить Джерри Льюиса, который украшает этот фильм своим присутствием.
Смотреть всем, ибо ранние Де Ниро и Скорсезе великолепны. (V.A.N.)
--------------------------------------------------
Оператор: Фред Шулер /Fred Schuler/
Сценарист: Пол Д. Зиммермэн /Paul D. Zimmerman/
Продюсер: Арнон Милчэн /Arnon Milchan/
Композитор: Робби Робертсон /Robbie Robertson/
Художник: Борис Левен /Boris Leven/
--------------------------------------------------

Награды

Награды:
Британская академия, 1984 год

Победитель (1):
* Лучший оригинальный сценарий
Номинации (4):
* Лучшая мужская роль (Роберт Де Ниро)
* Лучшая мужская роль второго плана (Джерри Льюис)
* Лучший режиссер (Мартин Скорсезе)
* Лучший монтаж
Каннский кинофестиваль, 1983 год
Номинации (1):
* Золотая пальмовая ветвь
--------------------------------------------------
КИНОПОИСК. RU
РЕЙТИНГ 7.568 оценки: 2338
7,8/10 from 37 401 users
--------------------------------------------------
--------------------------------------------------
СЭМПЛ
--------------------------------------------------
Тип релиза: WEB-DL 720p
Контейнер: MKV
Видео: 1280x686; 23.976 fps; ~ 3 987 Kbps; 0.189 Bits/Pixel
Аудио 1: Russian - 48 kHz, AC3 Dolby Digital, 2/0 (L,R) 2ch, ~192 kbps - Василий Горчаков
Аудио 2: Russian - 48 kHz, AC3 Dolby Digital, 2/0 (L,R) 2ch, ~192 kbps - DVO
Аудио 3: English - 48 kHz, AC3 Dolby Digital, 2/0 (L,R) 2ch, ~192 kbps - Original
Формат субтитров: все (*UTF-8)

MediaInfo

General
Complete name : F:\EXCLUZIVE=19\КОРОЛЬ КОМЕДИИ=KING OF COMEDY, THE.1982\King.of.Comedy, The.1982\The.King.of.Comedy.1982.720p.WEB-DL.mkv
Format : Matroska
File size : 3.55 GiB
Duration : 1h 49mn
Overall bit rate : 4 656 Kbps
Encoded date : UTC 2014-02-06 11:14:27
Writing application : mkvmerge v3.3.0 ('Language') built on Mar 24 2010 14:59:24
Writing library : libebml v0.8.0 + libmatroska v0.9.0
Video
ID : 1
Format : AVC
Format/Info : Advanced Video Codec
Format profile : High@L3.1
Format settings, CABAC : No
Format settings, ReFrames : 2 frames
Muxing mode : Container profile=Unknown@3.1
Codec ID : V_MPEG4/ISO/AVC
Duration : 1h 49mn
Bit rate : 3 987 Kbps
Width : 1 280 pixels
Height : 686 pixels
Display aspect ratio : 1.866
Frame rate : 23.976 fps
Color space : YUV
Chroma subsampling : 4:2:0
Bit depth : 8 bits
Scan type : Progressive
Bits/(Pixel*Frame) : 0.189
Stream size : 3.04 GiB (86%)
Title : The.King.of.Comedy.1982.
Language : English
Color primaries : BT.709-5, BT.1361, IEC 61966-2-4, SMPTE RP177
Transfer characteristics : BT.709-5, BT.1361
Matrix coefficients : BT.709-5, BT.1361, IEC 61966-2-4 709, SMPTE RP177
Audio #1
ID : 2
Format : AC-3
Format/Info : Audio Coding 3
Mode extension : CM (complete main)
Codec ID : A_AC3
Duration : 1h 49mn
Bit rate mode : Constant
Bit rate : 192 Kbps
Channel(s) : 2 channels
Channel positions : Front: L R
Sampling rate : 48.0 KHz
Stream size : 150 MiB (4%)
Title : AVO Горчаков @ AC3 2ch. 192 kbps
Language : Russian
Audio #2
ID : 3
Format : AC-3
Format/Info : Audio Coding 3
Mode extension : CM (complete main)
Codec ID : A_AC3
Duration : 1h 49mn
Bit rate mode : Constant
Bit rate : 192 Kbps
Channel(s) : 2 channels
Channel positions : Front: L R
Sampling rate : 48.0 KHz
Stream size : 150 MiB (4%)
Title : DVO @ AC3 2ch. 192 kbps
Language : Russian
Audio #3
ID : 4
Format : AC-3
Format/Info : Audio Coding 3
Mode extension : CM (complete main)
Codec ID : A_AC3
Duration : 1h 49mn
Bit rate mode : Constant
Bit rate : 192 Kbps
Channel(s) : 2 channels
Channel positions : Front: L R
Sampling rate : 48.0 KHz
Stream size : 150 MiB (4%)
Title : Original @ AC3 2ch. 192 kbps
Language : English
Text #1
ID : 5
Format : UTF-8
Codec ID : S_TEXT/UTF8
Codec ID/Info : UTF-8 Plain Text
Title : (* UTF-8)
Language : Russian
Text #2
ID : 6
Format : UTF-8
Codec ID : S_TEXT/UTF8
Codec ID/Info : UTF-8 Plain Text
Title : CC - (* UTF-8)
Language : English
Menu
00:00:00.000 : en:Say Hello to Jerry
00:03:16.000 : en:Main Titles
00:05:50.000 : en:Pupkin's Pitch
00:11:09.000 : en:Something Impossible
00:13:40.000 : en:A Call from Masha
00:15:01.000 : en:Mr. Romance
00:23:42.000 : en:Rupert Pupkin Calling
00:29:44.000 : en:Masha
00:32:09.000 : en:The Audition Tape
00:36:34.000 : en:How Do You Do It?
00:38:24.000 : en:Out in Public
00:41:23.000 : en:Royal Wedding
00:44:48.000 : en:Not Ready Yet
00:53:19.000 : en:Jerry's "Guests"
01:01:23.000 : en:Kidnapped
01:05:26.000 : en:The Phone Call
01:09:36.000 : en:Jerry's Word
01:14:41.000 : en:A Stupid Offense
01:17:07.000 : en:Mr. King
01:18:38.000 : en:Alone with Jerry
01:22:00.000 : en:Rules & Regulations
01:25:05.000 : en:Come Rain or Come Shine
01:26:36.000 : en:The FBI
01:30:29.000 : en:Showtime
01:32:30.000 : en:Masha's Mistake
01:35:14.000 : en:The Newest King of Comedy
01:42:48.000 : en:A Household Word
01:45:19.000 : en:End Titles

Скриншоты

, ,
, ,
, ,
Скачать

Скачать торрент!

Как скачивать? · Что такое торрент? · Рейтинг и ограничения

Сайт не распространяет и не хранит электронные версии произведений, а лишь предоставляет доступ к создаваемому пользователями каталогу ссылок на торрент-файлы, которые содержат только списки хеш-сумм

[Профиль] [ЛС]
Показать сообщения:    
Ответить на тему

Текущее время: Сегодня 22:17

Часовой пояс: GMT + 4



Вы не можете начинать темы
Вы не можете отвечать на сообщения
Вы не можете редактировать свои сообщения
Вы не можете удалять свои сообщения
Вы не можете голосовать в опросах
Вы не можете прикреплять файлы к сообщениям
Вы не можете скачивать файлы