С первого взгляда / At First Sight (Ирвин Уинклер / Irwin Winkler) [1999, США, драма, мелодрама, HDTV 1080i] DVO (НТВ+) + DVO + Sub Eng + Original Eng

Ответить на тему
 
Автор Сообщение

user ®

Стаж: 7 лет 7 месяцев

Сообщений: 20008

Пост Пост: #1 от 09-Фев-2014 18:50

[Цитировать]

С первого взгляда / At First Sight
Страна: США
Студия: Metro-Goldwyn-Mayer (MGM)
Жанр: драма, мелодрама
Год выпуска: 1999
Продолжительность: 02:03:30
Перевод 1: Профессиональный (двухголосый закадровый) НТВ+
Перевод 2: Профессиональный (двухголосый закадровый)
Cубтитры: английские
Оригинальная аудиодорожка: английский
Режиссер: Ирвин Уинклер / Irwin Winkler
В ролях: Вэл Килмер, Мира Сорвино, Келли МакГиллис, Стивен Вебер, Брюс Дэвисон, Нэтан Лейн, Кен Ховард, Лаура Кирк, Марго Уинклер, Дайана Крoлл
Описание: Картина снята на основе реальных событий, описанных известным американским писателем Оливером Саксом. Увидеть мир, который не мог видеть раньше, - это как родиться во второй раз. Еще ребенком Вирджил ослеп и потом вынужден был жить в мире, в котором... который он даже не знал, как выглядит. Что такое цвет, пейзаж, как выглядит любимая девушка?
И тут случилось чудо: хирург делает невозможное и возвращает Вирджилу, уже молодому человеку, зрение! Вот бинты после операции сняты и ему предстоит увидеть мир СВОИМИ глазами.

IMDB
Доп. информация:
За двухголоску и оригинальную дорогу спасибо ovasiliev
Тип релиза: HDTV 1080i
Контейнер: MKV
Видео: AVC 1920x1080 (16:9) 25.0fps Bit rate 5403Kbps
Аудио 1: MP2 48.0KHz 2ch 192 Kbps rus dvo
Аудио 2: AC3 48.0KHz 6ch 448 Kbps rus dvo
Аудио 3: AC3 48.0KHz 6ch 448 Kbps eng
Формат субтитров: softsub (SRT)

MediaInfo

Общее
Уникальный идентификатор : 248946629732495053390393262743653006389 (0xBB49607AEB8107C592AA76AEC34D3C35)
Полное имя : E:\torrent\At First Sight_HDTV1080i .mkv
Формат : Matroska
Версия формата : Version 4 / Version 2
Размер файла : 5,71 Гбайт
Продолжительность : 2 ч. 3 м.
Общий поток : 6622 Кбит/сек
Дата кодирования : UTC 2014-02-08 05:12:03
Программа кодирования : mkvmerge v6.7.0 ('Back to the Ground') 32bit built on Jan 8 2014 15:03:17
Библиотека кодирования : libebml v1.3.0 + libmatroska v1.4.1
Видео
Идентификатор : 1
Формат : AVC
Формат/Информация : Advanced Video Codec
Профиль формата : High@L4.0
Параметр CABAC формата : Да
Параметр ReFrames формата : 3 кадра
Параметр GOP формата : M=4, N=32
Идентификатор кодека : V_MPEG4/ISO/AVC
Продолжительность : 2 ч. 3 м.
Битрейт : 5403 Кбит/сек
Ширина : 1920 пикселей
Высота : 1080 пикселей
Соотношение сторон : 16:9
Режим частоты кадров : Постоянный
Частота кадров : 25,000 кадров/сек
Стандарт вещания : Component
Цветовое пространство : YUV
Субдискретизация насыщенности : 4:2:0
Битовая глубина : 8 бит
Тип развёртки : Чересстрочная
Порядок развёртки : Верхнее поле первое
Бит/(Пиксели*Кадры) : 0.104
Размер потока : 4,66 Гбайт (82%)
Заголовок : At First Sight_HDTV1080i
Default : Да
Forced : Нет
Основные цвета : BT.709
Характеристики трансфера : BT.709
Коэффициенты матрицы : BT.709
Аудио #1
Идентификатор : 2
Формат : MPEG Audio
Версия формата : Version 1
Профиль формата : Layer 2
Идентификатор кодека : A_MPEG/L2
Идентификатор кодека/Подсказка : MP2
Продолжительность : 2 ч. 3 м.
Вид битрейта : Постоянный
Битрейт : 192 Кбит/сек
Каналы : 2 канала
Частота : 48,0 КГц
Метод сжатия : С потерями
Размер потока : 170 Мбайт (3%)
Заголовок : At First Sight_MP2_2ch_rus_DVO_NTV+
Язык : Russian
Default : Да
Forced : Нет
Аудио #2
Идентификатор : 3
Формат : AC-3
Формат/Информация : Audio Coding 3
Расширение режима : CM (complete main)
Параметр Endianness формата : Big
Идентификатор кодека : A_AC3
Продолжительность : 2 ч. 3 м.
Вид битрейта : Постоянный
Битрейт : 448 Кбит/сек
Каналы : 6 каналов
Расположение каналов : Front: L C R, Side: L R, LFE
Частота : 48,0 КГц
Битовая глубина : 16 бит
Метод сжатия : С потерями
Размер потока : 396 Мбайт (7%)
Заголовок : At First Sight_AC3_6ch_rus_DVO
Язык : Russian
Default : Нет
Forced : Нет
Аудио #3
Идентификатор : 4
Формат : AC-3
Формат/Информация : Audio Coding 3
Расширение режима : CM (complete main)
Параметр Endianness формата : Big
Идентификатор кодека : A_AC3
Продолжительность : 2 ч. 3 м.
Вид битрейта : Постоянный
Битрейт : 448 Кбит/сек
Каналы : 6 каналов
Расположение каналов : Front: L C R, Side: L R, LFE
Частота : 48,0 КГц
Битовая глубина : 16 бит
Метод сжатия : С потерями
Размер потока : 396 Мбайт (7%)
Заголовок : At First Sight_AC3_6ch_original eng
Язык : English
Default : Нет
Forced : Нет
Текст
Идентификатор : 5
Формат : UTF-8
Идентификатор кодека : S_TEXT/UTF8
Идентификатор кодека/Информация : UTF-8 Plain Text
Заголовок : At First Sight_subtitle eng
Язык : English
Default : Нет
Forced : Нет

Скриншот с названием фильма

Скриншоты


Сравнение с DVD


Скачать

Скачать торрент!

Как скачивать? · Что такое торрент? · Рейтинг и ограничения

Сайт не распространяет и не хранит электронные версии произведений, а лишь предоставляет доступ к создаваемому пользователями каталогу ссылок на торрент-файлы, которые содержат только списки хеш-сумм

[Профиль] [ЛС]
Показать сообщения:    
Ответить на тему

Текущее время: Сегодня 08:13

Часовой пояс: GMT + 4



Вы не можете начинать темы
Вы не можете отвечать на сообщения
Вы не можете редактировать свои сообщения
Вы не можете удалять свои сообщения
Вы не можете голосовать в опросах
Вы не можете прикреплять файлы к сообщениям
Вы не можете скачивать файлы