Розовый кадиллак / Pink Cadillac (Бадди Ван Хорн / Buddy Van Horn) [1989, США, боевик, драма, комедия, WEB-DL 720p] AVO (Кузнецов) + MVO + Sub Eng + Original Eng

Ответить на тему
 
Автор Сообщение

user ®

Стаж: 7 лет 7 месяцев

Сообщений: 20008

Пост Пост: #1 от 09-Фев-2014 18:50

[Цитировать]

Розовый кадиллак / Pink Cadillac
Страна: США
Студия: Warner Bros. Pictures & Malpaso Productions
Жанр: боевик, драма, комедия
Год выпуска: 1989
Продолжительность: 02:01:03
Перевод 1: Авторский (одноголосый закадровый) СЕРГЕЙ КУЗНЕЦОВ
Перевод 2: Профессиональный (многоголосый закадровый)
Cубтитры: английские
Оригинальная аудиодорожка: английский
Режиссер: Бадди Ван Хорн / Buddy Van Horn
В ролях: Клинт Иствуд /Clint Eastwood/, Бернадетт Питерс /Bernadette Peters/, Джеффри Льюис /Geoffrey Lewis/, Майкл Дес Баррес /Michael Des Barres/, Джон Деннис Джонстон /John Dennis Johnston/, Тимоти Кархарт /Timothy Carhart/
Описание: Томми Новак (Иствуд) за приличную премию охотится за женщиной (Питерс), выпущенную до суда под залог и сбежавшей. Задача для такого опытного волка, как Новак, вроде бы несложная. Но в багажнике ее машины, кадиллака 1959 года, четверть миллиона чужих денег, и потому, помимо Новака, за ней гонится банда террористов-психопатов со всеми видами современного оружия, кроме танков. Экшн с элементами комедии. (Иванов М.)

Альтернативное описание:
Ковбой Мальборо:
Эта картина ничем не похожа на другие фильмы с Клинтом Иствудом. В самом фильме переплетается много жанров. Что самое главное сюда вписалась романтика, что для картин с Клинтом редкость.
В фильме помимо самого Клинта Иствуда играют неизвестные, но довольно хорошие актеры. Бернадетт Питерс хорошо показывает нам девушку которой деваться просто некуда, её игра не вызывает бурю эмоций и так далее, но для такого жанрового фильма вполне сойдет. Тимоти Кархарт — муж, главной героини, он состоит в банде, но при этом он очень невезуч, что ему не поручи, он этого не выполнит. Так же нельзя не отметить игры Майкла Деса Барреса исполняющего роль главаря банды и Джеффри Льюиса. Последнего кстати, часто можно заметить в картинах вместе с Иствудом, думаю они неплохо сработались. Ну и конечно же Клинт, оставил его напоследок, так как о его герое хотелось бы рассказать побольше. Том Новак — частный детектив, который выполняет свою работу хорошо, но как говорит один из персонажей фильма, что между его поступками и поступками преступников, очень тонкая грань. Но этот герой чем и примечателен, он больше не такой черствый как прежние герои Клинта, он так же может как и обычный человек влюбиться в девушку, что он с успехом и делает с главной героиней. Актеры — хороши, их игра вышла на пять с плюсом.
Подводя итог можно сказать что фильм удался на славу. В первую очередь понравится поклонникам Клинта Иствуда, и тем кто соскучился по качественным, добрым картинам. В фильме смешано много жанров, но от этого он не становится хуже, или же затянутым. Фильм заслуживает высшей оценки.
--------------------------------------------------------------------
Оператор: Джек Н. Грин /Jack N. Green/
Сценарист: Джон Эскоу /John Eskow/
Продюсер: Дэвид Вэлдес /David Valdes/
Монтажер: Джоэл Кокс /Joel Cox/
Композитор: Стив Дорфф /Steve Dorff/
Художник: Эдвард С. Карфаньо /Edward C. Carfagno/
Исполнительный продюсер: Майкл Грускофф /Michael Gruskoff/
--------------------------------------------------
КИНОПОИСК. RU
РЕЙТИНГ 6.150 оценки: 420
5,2/10 from 7 224 users
--------------------------------------------------
--------------------------------------------------
СЭМПЛ
--------------------------------------------------
Примечание: Скорость маленькая 50 kb/c, но раздаю круглосуточно.
--------------------------------------------------
Тип релиза: WEB-DL 720p
Контейнер: MKV
Видео: H264; 1280 x718; 23.976 fps; ~ 3 834 Kbps; 0.174 Bits/Pixel
Аудио 1: Russian - 48 kHz, AC3 Dolby Digital, 2/0 (L,R) 2ch, ~192 kbps - Сергей Кузнецов
Аудио 2: Russian - 48 kHz, AC3 Dolby Digital, 2/0 (L,R) 2ch, ~192 kbps - MVO
Аудио 3: English - 48 kHz, AC3 Dolby Digital, 2/0 (L,R) 2ch, ~192 kbps - Original
Формат субтитров: English (*UTF-8)

MediaInfo

General
Complete name : F:\EXCLUZIVE=19\РОЗОВЫЙ КАДИЛЛАК=PINK CADILLAC 1989\PINK CADILLAC 1989\Pink.Cadillac.1989.720p.WEB-DL.mkv
Format : Matroska
File size : 3.80 GiB
Duration : 2h 1mn
Overall bit rate : 4 499 Kbps
Encoded date : UTC 2014-02-08 17:41:41
Writing application : mkvmerge v3.3.0 ('Language') built on Mar 24 2010 14:59:24
Writing library : libebml v0.8.0 + libmatroska v0.9.0
Video
ID : 1
Format : AVC
Format/Info : Advanced Video Codec
Format profile : High@L3.1
Format settings, CABAC : No
Format settings, ReFrames : 2 frames
Muxing mode : Container profile=Unknown@3.1
Codec ID : V_MPEG4/ISO/AVC
Duration : 2h 1mn
Bit rate : 3 834 Kbps
Width : 1 280 pixels
Height : 718 pixels
Display aspect ratio : 16:9
Frame rate : 23.976 fps
Color space : YUV
Chroma subsampling : 4:2:0
Bit depth : 8 bits
Scan type : Progressive
Bits/(Pixel*Frame) : 0.174
Stream size : 3.24 GiB (85%)
Title : Pink.Cadillac.1989.
Language : English
Color primaries : BT.709-5, BT.1361, IEC 61966-2-4, SMPTE RP177
Transfer characteristics : BT.709-5, BT.1361
Matrix coefficients : BT.709-5, BT.1361, IEC 61966-2-4 709, SMPTE RP177
Audio #1
ID : 2
Format : AC-3
Format/Info : Audio Coding 3
Mode extension : CM (complete main)
Codec ID : A_AC3
Duration : 2h 1mn
Bit rate mode : Constant
Bit rate : 192 Kbps
Channel(s) : 2 channels
Channel positions : Front: L R
Sampling rate : 48.0 KHz
Stream size : 166 MiB (4%)
Title : AVO Кузнецов @ AC3 2ch. 192 kbps
Language : Russian
Audio #2
ID : 3
Format : AC-3
Format/Info : Audio Coding 3
Mode extension : CM (complete main)
Codec ID : A_AC3
Duration : 2h 1mn
Bit rate mode : Constant
Bit rate : 192 Kbps
Channel(s) : 2 channels
Channel positions : Front: L R
Sampling rate : 48.0 KHz
Stream size : 166 MiB (4%)
Title : MVO @ AC3 2ch. 192 kbps
Language : Russian
Audio #3
ID : 4
Format : AC-3
Format/Info : Audio Coding 3
Mode extension : CM (complete main)
Codec ID : A_AC3
Duration : 2h 1mn
Bit rate mode : Constant
Bit rate : 192 Kbps
Channel(s) : 2 channels
Channel positions : Front: L R
Sampling rate : 48.0 KHz
Stream size : 166 MiB (4%)
Title : Original @ AC3 2ch. 192 kbps
Language : English
Text
ID : 5
Format : UTF-8
Codec ID : S_TEXT/UTF8
Codec ID/Info : UTF-8 Plain Text
Title : (* UTF-8)
Language : English
Menu
00:00:00.000 : en:Date with Dolly.
00:06:03.000 : en:Nice ride, cowboy.
00:08:58.000 : en:Idiot-proof.
00:13:08.000 : en:Be reasonable.
00:16:04.000 : en:Messing with his vehicle.
00:19:02.000 : en:Obviously criminal.
00:22:20.000 : en:Loose money.
00:24:05.000 : en:Birthright targets.
00:28:08.000 : en:Their first stop.
00:31:13.000 : en:Elvis tribute.
00:35:38.000 : en:Cosmo fugitive.
00:41:58.000 : en:Roommates.
00:45:26.000 : en:Grade-A green.
00:47:29.000 : en:Dealing with the female.
00:52:17.000 : en:Doing Jack Bass.
01:00:04.000 : en:Unwanted guests.
01:02:08.000 : en:Accidents waiting to happen.
01:05:25.000 : en:Not his fight.
01:09:58.000 : en:Nowak's promise.
01:12:00.000 : en:Groovin' with Ricky Z.
01:17:35.000 : en:Hawaiian luau room.
01:20:57.000 : en:Blazing nirvana.
01:24:25.000 : en:About John A.
01:27:04.000 : en:Car wash ambush.
01:29:32.000 : en:Two-way trickery.
01:33:34.000 : en:Cocktails in Colterville.
01:36:58.000 : en:Going all the way.
01:42:02.000 : en:Plans A and B.
01:46:43.000 : en:Moving targets.
01:49:58.000 : en:The getaway.
01:55:18.000 : en:Partners.
01:57:18.000 : en:End Credits.

Скриншот c названием фильма

Скриншоты

, ,
, ,
, ,
Скачать

Скачать торрент!

Как скачивать? · Что такое торрент? · Рейтинг и ограничения

Сайт не распространяет и не хранит электронные версии произведений, а лишь предоставляет доступ к создаваемому пользователями каталогу ссылок на торрент-файлы, которые содержат только списки хеш-сумм

[Профиль] [ЛС]
Показать сообщения:    
Ответить на тему

Текущее время: Сегодня 11:52

Часовой пояс: GMT + 4



Вы не можете начинать темы
Вы не можете отвечать на сообщения
Вы не можете редактировать свои сообщения
Вы не можете удалять свои сообщения
Вы не можете голосовать в опросах
Вы не можете прикреплять файлы к сообщениям
Вы не можете скачивать файлы