(Breakbeat, Electro, Downtempo, Tech House, Big Beat) (1998) Junkie XL - Saturday Teenage Kick (Special Limited Edition) (Roadrunner Records, MR-502-2), (CD) FLAC (image + .cue), lossless -

Ответить на тему
 
Автор Сообщение

ornitocopter ®

Пол:

Стаж: 6 лет 2 месяца

Сообщений: 15

Откуда: Ураина

Пост Пост: #1 от 09-Фев-2014 01:56

[Цитировать]

Junkie XL - Saturday Teenage Kick (Special Limited Edition) - Исполнитель: Junkie XL || Жанр: Breakbeat, Electro, Downtempo, Tech House, Big Beat
Страна-производитель диска : Украина || Год выпуска: 1998
Издатель (лейбл): Ukrainian Records ‎– MR-502-2 || Аудио кодек: DTS
Формат: Ape (image + .cue) || Режим рипа: test & copy || Битрейт аудио: lossless
Количество композиций: 15 (1CDs) || Продолжительность: 01:12:25

01.
Future In Computer Hell [00:02:57]
02. Billy Club (Single Version) [00:03:09]
03. Bustin Like This (Previously Unreleased) [00:05:02]
04. Melange [00:04:08]
05. Metrolike [00:09:18]
06. X-Panding Limits [00:03:16]
07. War [00:02:47]
08. Saturday Teenage Kick (Single Version) [00:03:44]
09. Dealing With The Roster (Live) [00:03:18]
10. Fight (Live At Noorderslag) [00:05:51]
11. Def Beat [00:04:37]
12. Underachievers [00:04:26]
13. No Remorse [00:06:09]
14. Mulu [00:09:47]
15. 100 (Previously Unreleased) [00:03:48]

Лог создания рипа:

Exact Audio Copy V1.3 from 2. September 2016
Отчёт EAC об извлечении, выполненном 23. февраля 2018, 8:41
Junkie XL / Saturday Teenage Kick (Special Limited Edition)
Дисковод: DiscSoftVirtual Adapter: 1 ID: 2
Режим чтения : Достоверность
Использование точного потока : Да
Отключение кэша аудио : Нет
Использование указателей C2 : Нет
Коррекция смещения при чтении : 0
Способность читать области Lead-in и Lead-out : Нет
Заполнение пропущенных сэмплов тишиной : Да
Удаление блоков с тишиной в начале и конце : Нет
При вычислениях CRC использовались нулевые сэмплы : Да
Интерфейс : Встроенный Win32-интерфейс для Win NT/2000
Выходной формат : Monkey's Audio (без потерь)
Выбранный битрейт : Normal Lossless Compression
Качество : Высокий
Добавление ID3-тега : Нет
Утилита сжатия : C:\Program Files\Monkey's Audio x64\MAC.exe
TOC извлечённого CD
Трек | Старт | Длительность | Начальный сектор | Конечный сектор
---------------------------------------------------------------------
1 | 0:00.00 | 2:58.00 | 0 | 13349
2 | 2:58.00 | 3:11.00 | 13350 | 27674
3 | 6:09.00 | 5:02.62 | 27675 | 50386
4 | 11:11.62 | 4:09.58 | 50387 | 69119
5 | 15:21.45 | 9:18.20 | 69120 | 110989
6 | 24:39.65 | 3:17.20 | 110990 | 125784
7 | 27:57.10 | 2:49.12 | 125785 | 138471
8 | 30:46.22 | 3:45.25 | 138472 | 155371
9 | 34:31.47 | 3:19.00 | 155372 | 170296
10 | 37:50.47 | 5:51.40 | 170297 | 196661
11 | 43:42.12 | 4:38.40 | 196662 | 217551
12 | 48:20.52 | 4:27.73 | 217552 | 237649
13 | 52:48.50 | 6:08.70 | 237650 | 265319
14 | 58:57.45 | 9:48.47 | 265320 | 309466
15 | 68:46.17 | 3:49.12 | 309467 | 326653
Характеристики диапазона извлечения и сообщения об ошибках
Выбранный диапазон
Имя файла E:\Музыка\Junkie XL\Albums\(1998) Junkie XL – Saturday Teenage Kick (Special Limited Edition) (MR-502-2)\Junkie XL - Saturday Teenage Kick (Special Limited Edition).wav
Пиковый уровень 100.0 %
Скорость извлечения 33.4 X
Качество диапазона 100.0 %
CRC копии 3664484F
Копирование... OK
Ошибок не произошло
AccurateRip: сводка
Трек 1 отсутствует в базе данных
Трек 2 отсутствует в базе данных
Трек 3 отсутствует в базе данных
Трек 4 отсутствует в базе данных
Трек 5 отсутствует в базе данных
Трек 6 отсутствует в базе данных
Трек 7 отсутствует в базе данных
Трек 8 отсутствует в базе данных
Трек 9 отсутствует в базе данных
Трек 10 отсутствует в базе данных
Трек 11 отсутствует в базе данных
Трек 12 отсутствует в базе данных
Трек 13 отсутствует в базе данных
Трек 14 отсутствует в базе данных
Трек 15 отсутствует в базе данных
Ни одного трека нет в базе AccurateRip
Конец отчёта
---- CUETools DB Plugin V2.1.6
[CTDB TOCID: Qxdem4KLbxsJPQO42ngCQ7VWw68-] disk not present in database
Submit result: unrecognized or virtual drive

Отчет Audiochecker:

AUDIOCHECKER v2.0 beta (build 457) - by Dester - opdester@freemail.hu
~~~~~~~~~~~~~~~~~~~~~~~~~~~~~~~~~~
-=== НЕ РЕДАКТИРУЙТЕ ЭТОТ ФАЙЛ! ===-
Путь: ...\(1998) Junkie XL – Saturday Teenage Kick (Special Limited Edition) (MR-502-2)
1 -=- Junkie XL - Saturday Teenage Kick (Special Limited Edition).ape -=- MPEG (95%)
217140516
Скачать

Скачать торрент!

Как скачивать? · Что такое торрент? · Рейтинг и ограничения

Сайт не распространяет и не хранит электронные версии произведений, а лишь предоставляет доступ к создаваемому пользователями каталогу ссылок на торрент-файлы, которые содержат только списки хеш-сумм

загрузка...
[Профиль] [ЛС]
Показать сообщения:    
Ответить на тему

Текущее время: Сегодня 04:08

Часовой пояс: GMT + 4



Вы не можете начинать темы
Вы не можете отвечать на сообщения
Вы не можете редактировать свои сообщения
Вы не можете удалять свои сообщения
Вы не можете голосовать в опросах
Вы не можете прикреплять файлы к сообщениям
Вы не можете скачивать файлы