Долина роз (Дмитрий Черкасов) [2011, Россия, Латвия, драма, DVDRip]

Ответить на тему
 
Автор Сообщение

user ®

Стаж: 7 лет 7 месяцев

Сообщений: 20008

Пост Пост: #1 от 08-Фев-2014 18:50

[Цитировать]

Долина роз«Как же быстро ты живешь...»- Страна: Россия, Латвия
Жанр: драма
Год выпуска: 2011
Продолжительность: 01:59:03-Перевод: Не требуется
Cубтитры: Отсутствуют-Режиссер: Дмитрий Черкасов
В ролях: Анатолий Белый, Юлия Снигирь, Виталий Хаев, Оксана Фандера, Александр Горелов, Варвара Феофанова-Описание: История человека, начавшего новую жизнь на берегу рыбацкого поселка. Жизнь с рыбаками. Жизнь, где каждый занят делом и не задает лишних вопросов. Таким людям рыбацкая таверна «Долина роз» приносит счастье. Но потом, там появляется женщина. И все меняется…-imdb.com: 6,1/10 (8)
kinopoisk.ru: 6.587 (275)-Качество видео: DVDRip | Сэмпл
Формат видео: AVI-Видео: 720x400 (1.80:1), 25 fps, XviD build 73 ~1365 kbps avg, 0.19 bit/pixel
Аудио: 48 kHz, AC3 Dolby Digital, 3/2 (L,C,R,l,r) + LFE ch, ~384 kbps | Не требуется-

MediaInfo

General
Complete name : D:\Фильмы\Рипы\Dolina.roz.2011.DVDRip.1.45.Gb.by Fredd Kruger.avi
Format : AVI
Format/Info : Audio Video Interleave
File size : 1.46 GiB
Duration : 1h 59mn
Overall bit rate : 1 760 Kbps
Writing application : VirtualDubMod 1.5.10.3 | www.virtualdub-fr.org || (build 2550/release)
Writing library : VirtualDubMod build 2550/release
Video
ID : 0
Format : MPEG-4 Visual
Format profile : Advanced Simple@L5
Format settings, BVOP : 1
Format settings, QPel : No
Format settings, GMC : No warppoints
Format settings, Matrix : Custom
Codec ID : XVID
Codec ID/Hint : XviD
Duration : 1h 59mn
Bit rate : 1 365 Kbps
Width : 720 pixels
Height : 400 pixels
Display aspect ratio : 16:9
Frame rate : 25.000 fps
Color space : YUV
Chroma subsampling : 4:2:0
Bit depth : 8 bits
Scan type : Progressive
Compression mode : Lossy
Bits/(Pixel*Frame) : 0.190
Stream size : 1.14 GiB (78%)
Writing library : XviD 73
Audio
ID : 1
Format : AC-3
Format/Info : Audio Coding 3
Codec ID : 2000
Duration : 1h 59mn
Bit rate mode : Constant
Bit rate : 384 Kbps
Channel count : 6 channels
Sampling rate : 48.0 KHz
Compression mode : Lossy
Stream size : 327 MiB (22%)
Alignment : Split accross interleaves
Interleave, duration : 40 ms (1.00 video frame)
Interleave, preload duration : 500 ms

Скриншоты

Скачать

Скачать торрент!

Как скачивать? · Что такое торрент? · Рейтинг и ограничения

Сайт не распространяет и не хранит электронные версии произведений, а лишь предоставляет доступ к создаваемому пользователями каталогу ссылок на торрент-файлы, которые содержат только списки хеш-сумм

[Профиль] [ЛС]
Показать сообщения:    
Ответить на тему

Текущее время: Сегодня 15:55

Часовой пояс: GMT + 4



Вы не можете начинать темы
Вы не можете отвечать на сообщения
Вы не можете редактировать свои сообщения
Вы не можете удалять свои сообщения
Вы не можете голосовать в опросах
Вы не можете прикреплять файлы к сообщениям
Вы не можете скачивать файлы