Одноклассники.ru: НаCLICKай удачу (Павел Худяков) [2013, Комедия, фантастика, мелодрама, DVDRip]

Ответить на тему
 
Автор Сообщение

user ®

Стаж: 7 лет 7 месяцев

Сообщений: 20008

Пост Пост: #1 от 08-Фев-2014 12:30

[Цитировать]

Одноклассники.ru: НаCLICKай удачу
Жанр: Комедия, фантастика, мелодрама
Год выпуска: 2013
Продолжительность: 01:35:20
Режиссёр: Павел Худяков
В ролях: Пётр Фёдоров, Фёдор Бондарчук, Корнелия Поляк, Сергей Друзьяк, Тимати, Снуп Догг, Сергей Никоненко, Александр Ревва, Ольга Тумайкина, Семён Стругачев, Жанна Фриске
Описание: Круто, когда есть кнопка, на которую жмёшь, и всё становится по-твоему! Именно такая попала в руки молодому креативщику и тотальному неудачнику Лёше. Теперь у него высокооплачиваемая работа, дорогая машина, стильный гардероб и, конечно, идеальная девушка. Достаточно одного клика! Просто надо знать, куда жать!... А начиналось всё так: в жизни талантливого копирайтера Лёши наступила чёрная полоса. Всё, за что он берётся заканчивается полным провалом. Даже самые благие намерения, например спасение собаки из рук хулиганов оборачивается катастрофой - Лёшу жестоко избивают. Только лучший друг Димон и спасённый Лешей пёс Снуппи остаются рядом с ним и готовы идти до конца. Всё равно дальше падать некуда. Всем троим срочно нужно чудо. Спасение приходит неожиданно: Лёша хочет вернуть Снуппи хозяину и попадает в очень необычное место, в котором всем заправляет парень по имени Лил Вейн. За спасение любимого пса он вручает Лёше ноутбук. В руках нашего героя оказывается настоящее чудо: стоит написать статус в «Одноклассниках» и самые заветные мечты становятся реальностью. Девушки, дорогие машины, роскошный дом - для волшебного ноутбука нет ничего невозможного. Главная цель Лёши - устроиться на работу в престижное рекламное агентство и заслужить любовь красавицы Маши. Первое желание исполняется мгновенно, а вот со вторым есть проблемы. Маша встречается с редкостным негодяем Федором, который ненавидит Лёшу с самой первой встречи. Более того, Фёдор – Лёшин шеф и правая рука главы рекламного агентства Виктора Чернышёва. Лёша всё больше и больше увлекается чудесами ноутбука: теперь его лучший друг - Тимати, он в одно мгновение может изменить политику целого государства и создать популяцию амурских тигров в Сибири...

Качество видео: DVDRip (Исходник: DVD-9)
Формат видео: AVI
Видео: XviD, 720x304 (2.35:1), 25 кадр/с, 1585 Кбит/с,
Аудио: Русский, Dolby AC3, 48000 Гц, 448 Кбит/с, 6 каналов (5.1)

MediaInfo

General
Complete name : Odnoklassniki.Naklikay.Uda4u.2013.O.DVDRip.1400MB.avi
Format : AVI
Format/Info : Audio Video Interleave
File size : 1.37 GiB
Duration : 1h 35mn
Overall bit rate : 2 043 Kbps
Writing application : VirtualDubMod 1.5.10.2 (build 2540/release)
Writing library : VirtualDubMod build 2540/release
Video
ID : 0
Format : MPEG-4 Visual
Format profile : Advanced Simple@L5
Format settings, BVOP : 2
Format settings, QPel : No
Format settings, GMC : No warppoints
Format settings, Matrix : Default (MPEG)
Codec ID : XVID
Codec ID/Hint : XviD
Duration : 1h 35mn
Bit rate : 1 585 Kbps
Width : 720 pixels
Height : 304 pixels
Display aspect ratio : 2.35:1
Frame rate : 25.000 fps
Color space : YUV
Chroma subsampling : 4:2:0
Bit depth : 8 bits
Scan type : Progressive
Compression mode : Lossy
Bits/(Pixel*Frame) : 0.290
Stream size : 1.06 GiB (78%)
Writing library : XviD 1.2.1 (UTC 2008-12-04)
Audio
ID : 1
Format : AC-3
Format/Info : Audio Coding 3
Mode extension : CM (complete main)
Codec ID : 2000
Duration : 1h 35mn
Bit rate mode : Constant
Bit rate : 448 Kbps
Channel(s) : 6 channels
Channel positions : Front: L C R, Side: L R, LFE
Sampling rate : 48.0 KHz
Bit depth : 16 bits
Compression mode : Lossy
Stream size : 307 MiB (22%)
Alignment : Split accross interleaves
Interleave, duration : 40 ms (1.00 video frame)
Interleave, preload duration : 500 ms

Скриншот c названием фильма

Скриншоты

Скачать

Скачать торрент!

Как скачивать? · Что такое торрент? · Рейтинг и ограничения

Сайт не распространяет и не хранит электронные версии произведений, а лишь предоставляет доступ к создаваемому пользователями каталогу ссылок на торрент-файлы, которые содержат только списки хеш-сумм

[Профиль] [ЛС]
Показать сообщения:    
Ответить на тему

Текущее время: Сегодня 07:05

Часовой пояс: GMT + 4



Вы не можете начинать темы
Вы не можете отвечать на сообщения
Вы не можете редактировать свои сообщения
Вы не можете удалять свои сообщения
Вы не можете голосовать в опросах
Вы не можете прикреплять файлы к сообщениям
Вы не можете скачивать файлы