Храм Красных Лилий / Story in Temple Red Lily / Battle in Red Temple / Lui Xuan Liang huo shao Hong Lian Si (Карл Ляо / Karl Liao) [1976, Тайвань, боевые искусства, DVDRip] MVO (ДТВ)

Ответить на тему
 
Автор Сообщение

user ®

Стаж: 11 лет

Сообщений: 15151

Пост Пост: #1 от 08-Фев-2014 03:50

[Цитировать]

Храм Красных Лилий / Story in Temple Red Lily / Battle in Red Temple / Lui Xuan Liang huo shao Hong Lian Si
Страна: Тайвань
Жанр: боевые искусства
Год выпуска: 1976
Продолжительность: 01:27:14
Перевод: Профессиональный (многоголосый закадровый) ДТВ
Cубтитры: нет
Режиссер: Карл Ляо / Karl Liao
В ролях: Цзя Лин, Дориан Тан, Лун Фэй, Вон Лик, Се Линлин, И Юань, Дун Ли, Гао Юань, Су Чжэньпин, Ма Цзи
Описание: Молодой принц одной из восточных стран узнает, что его хотят убить. Во главе заговора — высшие сановники королевства. Им помогают монахи тайного ордена Красных лилий, в котором хранятся тайны древнего искусства кунг-фу. При помощи верных друзей принц чудом избегает гибели. В фильме отражена реальная страница из истории Китая. Орден Красных лилий действительно существовал и служил прибежищем злодеям и преступникам.
Доп. информация: Автор рипа - ХВАНГ (МИТЯЙ).
Сэмпл: http://multi-up.com/948588
Качество видео: DVDRip
Формат видео: AVI
Видео: 720x304 (2.37:1), 23.976 fps, XviD build 50 ~2061 kbps avg, 0.39 bit/pixel
Аудио: 48 kHz, AC3 Dolby Digital, 2/0 (L,R) ch, ~192 kbps

MediaInfo

Format : AVI
Format/Info : Audio Video Interleave
File size : 1,38 Гбайт
Duration : 1 ч. 27 м.
Overall bit rate : 2260 Кбит/сек
Writing application : VirtualDubMod 1.5.4.1 (build 2178/release)
Writing library : VirtualDubMod build 2178/release
Видео
ID : 0
Format : MPEG-4 Visual
Format profile : Advanced Simple@L5
Format settings, BVOP : Нет
Format settings, QPel : Нет
Format settings, GMC : Без точки перехода
Format settings, Matrix : Выборочная
Codec ID : XVID
Codec ID/Hint : XviD
Duration : 1 ч. 27 м.
Bit rate : 2061 Кбит/сек
Width : 720 пикселей
Height : 304 пикселя
Display aspect ratio : 2,35:1
Frame rate : 23,976 кадра/сек
Color space : YUV
Chroma subsampling : 4:2:0
Bit depth : 8 бит
Scan type : Прогрессивная
Compression mode : С потерями
Bits/(Pixel*Frame) : 0.393
Stream size : 1,26 Гбайт (91%)
Writing library : XviD 1.2.1 (UTC 2008-12-04)
Аудио
ID : 1
Format : AC-3
Format/Info : Audio Coding 3
Mode extension : CM (complete main)
Format settings, Endianness : Big
Codec ID : 2000
Duration : 1 ч. 27 м.
Bit rate mode : Постоянный
Bit rate : 192 Кбит/сек
Channel(s) : 2 канала
Channel positions : Front: L R
Sampling rate : 48,0 КГц
Bit depth : 16 бит
Compression mode : С потерями
Stream size : 120 Мбайт (8%)
Alignment : Разделение по промежуткам
Interleave, duration : 96 мс. (2,30 видеокадра)
Interleave, preload duration : 96 мс.

Скриншот c названием фильма

Скриншоты

Скачать

Скачать торрент! Храм Красных Лилий / Story in Temple Red Lily / Battle in Red Temple / Lui Xuan Liang huo shao Hong Lian Si (Карл Ляо / Karl Liao) [1976, Тайвань, боевые искусства, DVDRip] MVO (ДТВ)

Как скачивать? · Что такое торрент? · Рейтинг и ограничения

Сайт не распространяет и не хранит электронные версии произведений, а лишь предоставляет доступ к создаваемому пользователями каталогу ссылок на торрент-файлы, которые содержат только списки хеш-сумм

[Профиль] [ЛС]
Показать сообщения:    
Ответить на тему

Текущее время: Сегодня 22:33

Часовой пояс: GMT + 4



Вы не можете начинать темы
Вы не можете отвечать на сообщения
Вы не можете редактировать свои сообщения
Вы не можете удалять свои сообщения
Вы не можете голосовать в опросах
Вы не можете прикреплять файлы к сообщениям
Вы не можете скачивать файлы