Мстительный кулак / Маленький супермен / Fist Of Vengeance / Little Superman / Sheng long huo hu xiao ying xiong (Нг Си-Юэнь / Ng See-Yuen) [1975, Гонконг, боевые искусства, VHSRip] AVO (Сергей Кузнецов)

Ответить на тему
 
Автор Сообщение

user ®

Стаж: 11 лет

Сообщений: 15151

Пост Пост: #1 от 08-Фев-2014 03:50

[Цитировать]

Мстительный кулак / Маленький супермен / Fist Of Vengeance / Little Superman / Sheng long huo hu xiao ying xiong
Страна: Гонконг
Жанр: боевые искусства
Год выпуска: 1975
Продолжительность: 01:40:41
Перевод: Авторский (одноголосый закадровый) Сергей Кузнецов
Cубтитры: нет
Режиссер: Нг Си-Юэнь / Ng See-Yuen
В ролях: Брюс Лян, Вон Юньсань, Ху Цзинь, Джеймс Нам, Хань Гоцай, Мэн Хай, Нг Минчой, Ван Юаньтай, Лю Лили, Сунь Лань
Описание: В 1941 году, в Китае сбит японский самолёт, на котором транспортировались тайные документы, относящиеся к японскому плану вторжения в Китай. Прежде чем японцы смогли добраться до самолёта, документы исчезли. Хуан И-цин, высокопоставленный офицер китайской тайной полиции встречается с господином Паном и открывает ему тайну об исчезнувших документах. Он рассказывает Пану, что документы где-то в Макао и просит отыскать их за деньги. Тем временем японский полковник Кено получает информацию о местонахождении документов. Теперь Пан и четыре беспризорника должны найти документы раньше, чем японцы, и передать их китайской стороне, чтобы спасти свою страну от захватчиков.
Доп. информация: Автор рипа - ХВАНГ (МИТЯЙ).
Сэмпл: http://multi-up.com/948652
Качество видео: VHSRip
Формат видео: AVI
Видео: 720x384 (1.88:1), 25 fps, XviD build 50 ~1870 kbps avg, 0.27 bit/pixel
Аудио: 48 kHz, AC3 Dolby Digital, 2/0 (L,R) ch, ~192 kbps

MediaInfo

Format : AVI
Format/Info : Audio Video Interleave
File size : 1,46 Гбайт
Duration : 1 ч. 40 м.
Overall bit rate : 2069 Кбит/сек
Writing application : VirtualDubMod 1.5.4.1 (build 2178/release)
Writing library : VirtualDubMod build 2178/release
Видео
ID : 0
Format : MPEG-4 Visual
Format profile : Advanced Simple@L5
Format settings, BVOP : 1
Format settings, QPel : Нет
Format settings, GMC : Без точки перехода
Format settings, Matrix : Выборочная
Codec ID : XVID
Codec ID/Hint : XviD
Duration : 1 ч. 40 м.
Bit rate : 1870 Кбит/сек
Width : 720 пикселей
Height : 384 пикселя
Display aspect ratio : 1,85:1
Frame rate : 25,000 кадров/сек
Color space : YUV
Chroma subsampling : 4:2:0
Bit depth : 8 бит
Scan type : Прогрессивная
Compression mode : С потерями
Bits/(Pixel*Frame) : 0.271
Stream size : 1,32 Гбайт (90%)
Writing library : XviD 1.2.1 (UTC 2008-12-04)
Аудио
ID : 1
Format : AC-3
Format/Info : Audio Coding 3
Mode extension : CM (complete main)
Format settings, Endianness : Big
Codec ID : 2000
Duration : 1 ч. 40 м.
Bit rate mode : Постоянный
Bit rate : 192 Кбит/сек
Channel(s) : 2 канала
Channel positions : Front: L R
Sampling rate : 48,0 КГц
Bit depth : 16 бит
Compression mode : С потерями
Stream size : 138 Мбайт (9%)
Alignment : Разделение по промежуткам
Interleave, duration : 96 мс. (2,40 видеокадра)
Interleave, preload duration : 96 мс.

Скриншот c названием фильма

Скриншоты

Скачать

Скачать торрент! Мстительный кулак / Маленький супермен / Fist Of Vengeance / Little Superman / Sheng long huo hu xiao ying xiong (Нг Си-Юэнь / Ng See-Yuen) [1975, Гонконг, боевые искусства, VHSRip] AVO (Сергей Кузнецов)

Как скачивать? · Что такое торрент? · Рейтинг и ограничения

Сайт не распространяет и не хранит электронные версии произведений, а лишь предоставляет доступ к создаваемому пользователями каталогу ссылок на торрент-файлы, которые содержат только списки хеш-сумм

[Профиль] [ЛС]
Показать сообщения:    
Ответить на тему

Текущее время: Сегодня 11:06

Часовой пояс: GMT + 4



Вы не можете начинать темы
Вы не можете отвечать на сообщения
Вы не можете редактировать свои сообщения
Вы не можете удалять свои сообщения
Вы не можете голосовать в опросах
Вы не можете прикреплять файлы к сообщениям
Вы не можете скачивать файлы