Джеймси / Jamesy Boy (Тревор Уайт / Trevor White) [2014, США, мелодрама, криминал, WEB-DLRip] VO (datynet)

Ответить на тему
 
Автор Сообщение

user ®

Стаж: 7 лет 7 месяцев

Сообщений: 20008

Пост Пост: #1 от 08-Фев-2014 03:50

[Цитировать]

Джеймси / Jamesy Boy
Страна: США
Жанр: мелодрама, криминал
Год выпуска: 2014
Продолжительность: 01:49:33
Перевод: Одноголосый закадровый datynet
Cубтитры: нет
Режиссер: Тревор Уайт / Trevor White
В ролях: Дженьюэри Джонс, Эд Харрис, Джейсон Айзекс, Эдуардо Норьега, Стивен Рут, Джейсон Алдин, Вик Браудер, Люче Рэйнс, Дилан Кенин, Кит Мэривезер
Описание: Реальная история Джеймса Бёрнса, который еще подростком связался с уличными бандами Денвера и в результате попал в тюрьму строгого режима. Но, несмотря на всё это, Джеймс всё же верит в светлое будущее.
Сэмпл: http://multi-up.com/948665
Качество видео: WEB-DLRip [Рип с WEB-DL 720p]
Формат видео: AVI
Видео: XVID, 1582 kb/s, 720x304, 23,976 кадра/сек
Аудио: MP3, 192 kb/s, (2 ch), 44,1 КГц
присутствует ненормативная лексика

MediaInfo

I:\Джеймси\Jamesy.Boy.2014.L1.WEBDLRip.1400MB.avi
General
Complete name : I:\Джеймси\Jamesy.Boy.2014.L1.WEBDLRip.1400MB.avi
Format : AVI
Format/Info : Audio Video Interleave
File size : 1.36 GiB
Duration : 1h 49mn
Overall bit rate : 1 783 Kbps
Writing application : VirtualDubMod 1.5.10.3 | www.virtualdub-fr.org || (build 2550/release)
Writing library : VirtualDubMod build 2550/release
Video #0
ID : 0
Format : MPEG-4 Visual
Format profile : Advanced Simple@L5
Format settings, BVOP : 1
Format settings, QPel : No
Format settings, GMC : No warppoints
Format settings, Matrix : Custom
Codec ID : XVID
Codec ID/Hint : XviD
Duration : 1h 49mn
Bit rate : 1 582 Kbps
Width : 720 pixels
Height : 304 pixels
Display aspect ratio : 2.35:1
Frame rate : 23.976 fps
Color space : YUV
Chroma subsampling : 4:2:0
Bit depth : 8 bits
Scan type : Progressive
Compression mode : Lossy
Bits/(Pixel*Frame) : 0.301
Stream size : 1.21 GiB (89%)
Writing library : XviD 1.2.1 (UTC 2008-12-04)
Audio #1
ID : 1
Format : MPEG Audio
Format version : Version 1
Format profile : Layer 3
Codec ID : 55
Codec ID/Hint : MP3
Duration : 1h 49mn
Bit rate mode : Constant
Bit rate : 192 Kbps
Channel count : 2 channels
Sampling rate : 44.1 KHz
Compression mode : Lossy
Stream size : 150 MiB (11%)
Alignment : Split accross interleaves
Interleave, duration : 42 ms (1.00 video frame)
Interleave, preload duration : 500 ms

Скриншот c названием фильма

Скриншоты

Скачать

Скачать торрент!

Как скачивать? · Что такое торрент? · Рейтинг и ограничения

Сайт не распространяет и не хранит электронные версии произведений, а лишь предоставляет доступ к создаваемому пользователями каталогу ссылок на торрент-файлы, которые содержат только списки хеш-сумм

[Профиль] [ЛС]
Показать сообщения:    
Ответить на тему

Текущее время: Сегодня 02:21

Часовой пояс: GMT + 4



Вы не можете начинать темы
Вы не можете отвечать на сообщения
Вы не можете редактировать свои сообщения
Вы не можете удалять свои сообщения
Вы не можете голосовать в опросах
Вы не можете прикреплять файлы к сообщениям
Вы не можете скачивать файлы