Город ангелов / City of Angels (Брэд Силберлинг / Brad Silberling) [1998, Германия, США, Фэнтези, драма, мелодрама, BDRip 1080p] 2x Dub + DVO (НТВ+) + 2x AVO (Визгунов, Кашкин) + VO + Original Eng + sub (Rus, Eng) + Ukr

Ответить на тему
 
Автор Сообщение

user ®

Стаж: 7 лет 7 месяцев

Сообщений: 20008

Пост Пост: #1 от 07-Фев-2014 21:30

[Цитировать]

Город ангелов / City of Angels- Год выпуска: 1998
Выпущено: Германия, США
Жанр: Фэнтези, драма, мелодрама
Продолжительность: 01:54:13
Перевод: Профессиональный (полное дублирование) Blu-ray CEE
+ Профессиональный (полное дублирование) Варус Видео
+ Профессиональный (двухголосый, закадровый) НТВ+
+ Авторский одноголосый С.Визгунов
+ Авторский одноголосый А.Кашкин
+ Одноголосый закадровый
Субтитры: Русские, Английские (srt*)-Режиссер: Брэд Силберлинг / Brad Silberling
В ролях: Николас Кейдж, Мег Райан, Андре Брогер, Деннис Франц, Колм Фиор, Робин Бартлетт, Джоанна Мерлин, Сара Дэмф, Ронда Дотсон, Найджел Гиббс
О фильме: Ангелы живут не на небесах. Они невидимо присутствуют рядом с людьми, прислушиваясь к их мыслям и направляя их поступки, подбадривая и утешая в минуты отчаяния. Но для них не существует мира человеческих чувств: вкуса черного кофе, боли порезанного пальца или любви. Поэтому некоторых из них так тянет к людям, и порой ангел теряет свои крылья и превращается в простого смертного. Что и происходит с героем фильма, которого увлекла на Землю любовь к женщине.-SbR!
Релиз: by Skazhutin
Формат: MKV
Видео: 1920x800 at 23.976 fps, x264@L4.1, crf, ~16900 kbps avg
Аудио #1: Russian: 48 kHz, AC3, 3/2 (L,C,R,l,r) + LFE ch, ~448.00 kbps avg |Дубляж, Blu-ray CEE|
Аудио #2: Russian: 48 kHz, AC3, 2/0 (L,R) ch, ~192.00 kbps avg |Дубляж, Варус Видео|
Аудио #3: Russian: 48 kHz, AC3, 2/0 (L,R) ch, ~192.00 kbps avg |Двухголосый закадровый, НТВ+|
Аудио #4: Russian: 48 kHz, AC3, 3/2 (L,C,R,l,r) + LFE ch, ~384.00 kbps avg |Одноголосый закадровый, С.Визгунов|
Аудио #5: Russian: 48 kHz, AC3, 3/2 (L,C,R,l,r) + LFE ch, ~384.00 kbps avg |Одноголосый закадровый, А.Кашкин|
Аудио #6: Russian: 48 kHz, AC3, 2/0 (L,R) ch, ~192.00 kbps avg |Одноголосый закадровый|
Аудио #7: Ukrainian: 48 kHz, AC3, 2/0 (L,R) ch, ~192.00 kbps avg |Многоголосый закадровый, 1+1|
Аудио #8: English: 48 kHz, DTS, 3/2 (L,C,R,l,r) + LFE ch, ~1536.00 kbps avg
Семпл-

Source vs Encode






-

mInfo


Формат : Matroska
Версия формата : Version 4 / Version 2
Размер файла : 16,6 Гбайт
Продолжительность : 1 ч. 54 м.
Общий поток : 20,8 Мбит/сек
Название фильма : City of Angels (1998) - Release for HDCLUB by SbR
Дата кодирования : UTC 2014-01-23 09:33:06
Программа кодирования : mkvmerge v6.6.0 ('The Edge Of The In Between') built on Dec 1 2013 17:55:00
Библиотека кодирования : libebml v1.3.0 + libmatroska v1.4.1
Attachment : Yes / Yes
Видео
Идентификатор : 1
Формат : AVC
Формат/Информация : Advanced Video Codec
Профиль формата : High@L4.1
Параметр CABAC формата : Да
Параметр ReFrames формата : 5 кадров
Идентификатор кодека : V_MPEG4/ISO/AVC
Продолжительность : 1 ч. 54 м.
Битрейт : 16,9 Мбит/сек
Ширина : 1920 пикселей
Высота : 800 пикселей
Соотношение сторон : 2,40:1
Режим частоты кадров : Постоянный
Частота кадров : 23,976 кадра/сек
Цветовое пространство : YUV
Субдискретизация насыщенности : 4:2:0
Битовая глубина : 8 бит
Тип развёртки : Прогрессивная
Бит/(Пиксели*Кадры) : 0.458
Размер потока : 13,5 Гбайт (81%)
Заголовок : Release for HDCLUB
Библиотека кодирования : x264 core 140 r2377+40 929f149 tMod [8-bit@4:2:0 X86_64]
Настройки программы : cabac=1 / ref=5 / deblock=1:-2:-2 / analyse=0x3:0x113 / me=umh / subme=11 / psy=1 / fade_compensate=0.00 / psy_rd=1.00:0.00 / mixed_ref=1 / me_range=48 / chroma_me=1 / trellis=2 / 8x8dct=1 / cqm=0 / deadzone=21,11 / fast_pskip=1 / chroma_qp_offset=-2 / threads=12 / lookahead_threads=3 / sliced_threads=0 / nr=0 / decimate=1 / interlaced=0 / bluray_compat=0 / constrained_intra=0 / fgo=0 / bframes=11 / b_pyramid=2 / b_adapt=2 / b_bias=0 / direct=3 / weightb=1 / open_gop=0 / weightp=2 / keyint=250 / keyint_min=23 / scenecut=40 / intra_refresh=0 / rc_lookahead=60 / rc=crf / mbtree=0 / crf=20.0000 / qcomp=0.70 / qpmin=0:0:0 / qpmax=69:69:69 / qpstep=4 / vbv_maxrate=62500 / vbv_bufsize=78125 / crf_max=0.0 / nal_hrd=none / filler=0 / ip_ratio=1.25 / pb_ratio=1.15 / aq=4:0.70 / aq-sensitivity=11.00 / aq-factor=1.00:1.00:1.00 / aq2=1:0.60 / aq2-sensitivity=9.00 / aq2-factor=1.00:1.00:1.00 / aq3=1:[0.60:0.60]:[0.60:0.60]:[0.60:0.60]:[0.60:0.60] / aq3-sensitivity=10.00 / aq3-factor=[1.00:1.00]:[1.00:1.00]:[1.00:1.00] / aq3-boundary=192:64:24
Язык : English
Default : Да
Forced : Нет
Основные цвета : BT.709
Характеристики трансфера : BT.709
Коэффициенты матрицы : BT.709
Аудио #1
Идентификатор : 2
Формат : AC-3
Формат/Информация : Audio Coding 3
Расширение режима : CM (complete main)
Параметр Endianness формата : Big
Идентификатор кодека : A_AC3
Продолжительность : 1 ч. 54 м.
Вид битрейта : Постоянный
Битрейт : 448 Кбит/сек
Каналы : 6 каналов
Расположение каналов : Front: L C R, Side: L R, LFE
Частота : 48,0 КГц
Битовая глубина : 16 бит
Метод сжатия : С потерями
Размер потока : 366 Мбайт (2%)
Заголовок : Dub, Blu-ray CEE
Язык : Russian
Default : Да
Forced : Нет
Аудио #2
Идентификатор : 3
Формат : AC-3
Формат/Информация : Audio Coding 3
Расширение режима : CM (complete main)
Параметр Endianness формата : Big
Идентификатор кодека : A_AC3
Продолжительность : 1 ч. 54 м.
Вид битрейта : Постоянный
Битрейт : 192 Кбит/сек
Каналы : 2 канала
Расположение каналов : Front: L R
Частота : 48,0 КГц
Битовая глубина : 16 бит
Метод сжатия : С потерями
Размер потока : 157 Мбайт (1%)
Заголовок : Dub, Варус Видео
Язык : Russian
Default : Нет
Forced : Нет
Аудио #3
Идентификатор : 4
Формат : AC-3
Формат/Информация : Audio Coding 3
Расширение режима : CM (complete main)
Параметр Endianness формата : Big
Идентификатор кодека : A_AC3
Продолжительность : 1 ч. 54 м.
Вид битрейта : Постоянный
Битрейт : 192 Кбит/сек
Каналы : 2 канала
Расположение каналов : Front: L R
Частота : 48,0 КГц
Битовая глубина : 16 бит
Метод сжатия : С потерями
Размер потока : 157 Мбайт (1%)
Заголовок : DVO, НТВ+
Язык : Russian
Default : Нет
Forced : Нет
Аудио #4
Идентификатор : 5
Формат : AC-3
Формат/Информация : Audio Coding 3
Расширение режима : CM (complete main)
Параметр Endianness формата : Big
Идентификатор кодека : A_AC3
Продолжительность : 1 ч. 54 м.
Вид битрейта : Постоянный
Битрейт : 384 Кбит/сек
Каналы : 6 каналов
Расположение каналов : Front: L C R, Side: L R, LFE
Частота : 48,0 КГц
Битовая глубина : 16 бит
Метод сжатия : С потерями
Размер потока : 314 Мбайт (2%)
Заголовок : VO, Визгунов
Язык : Russian
Default : Нет
Forced : Нет
Аудио #5
Идентификатор : 6
Формат : AC-3
Формат/Информация : Audio Coding 3
Расширение режима : CM (complete main)
Параметр Endianness формата : Big
Идентификатор кодека : A_AC3
Продолжительность : 1 ч. 54 м.
Вид битрейта : Постоянный
Битрейт : 384 Кбит/сек
Каналы : 6 каналов
Расположение каналов : Front: L C R, Side: L R, LFE
Частота : 48,0 КГц
Битовая глубина : 16 бит
Метод сжатия : С потерями
Размер потока : 314 Мбайт (2%)
Заголовок : VO, Кашкин
Язык : Russian
Default : Нет
Forced : Нет
Аудио #6
Идентификатор : 7
Формат : AC-3
Формат/Информация : Audio Coding 3
Расширение режима : CM (complete main)
Параметр Endianness формата : Big
Идентификатор кодека : A_AC3
Продолжительность : 1 ч. 54 м.
Вид битрейта : Постоянный
Битрейт : 192 Кбит/сек
Каналы : 2 канала
Расположение каналов : Front: L R
Частота : 48,0 КГц
Битовая глубина : 16 бит
Метод сжатия : С потерями
Размер потока : 157 Мбайт (1%)
Заголовок : VO
Язык : Russian
Default : Нет
Forced : Нет
Аудио #7
Идентификатор : 8
Формат : AC-3
Формат/Информация : Audio Coding 3
Расширение режима : CM (complete main)
Параметр Endianness формата : Big
Идентификатор кодека : A_AC3
Продолжительность : 1 ч. 54 м.
Вид битрейта : Постоянный
Битрейт : 192 Кбит/сек
Каналы : 2 канала
Расположение каналов : Front: L R
Частота : 48,0 КГц
Битовая глубина : 16 бит
Метод сжатия : С потерями
Размер потока : 157 Мбайт (1%)
Заголовок : MVO, 1+1
Язык : Ukrainian
Default : Нет
Forced : Нет
Аудио #8
Идентификатор : 9
Формат : DTS
Формат/Информация : Digital Theater Systems
Режим : 16
Параметр Endianness формата : Big
Идентификатор кодека : A_DTS
Продолжительность : 1 ч. 54 м.
Вид битрейта : Постоянный
Битрейт : 1509 Кбит/сек
Каналы : 6 каналов
Расположение каналов : Front: L C R, Side: L R, LFE
Частота : 48,0 КГц
Битовая глубина : 16 бит
Метод сжатия : С потерями
Размер потока : 1,20 Гбайт (7%)
Язык : English
Default : Нет
Forced : Нет
Текст #1
Идентификатор : 10
Формат : UTF-8
Идентификатор кодека : S_TEXT/UTF8
Идентификатор кодека/Информация : UTF-8 Plain Text
Язык : Russian
Default : Нет
Forced : Нет
Текст #2
Идентификатор : 11
Формат : UTF-8
Идентификатор кодека : S_TEXT/UTF8
Идентификатор кодека/Информация : UTF-8 Plain Text
Заголовок : SDH
Язык : English
Default : Нет
Forced : Нет
Текст #3
Идентификатор : 12
Формат : UTF-8
Идентификатор кодека : S_TEXT/UTF8
Идентификатор кодека/Информация : UTF-8 Plain Text
Язык : English
Default : Нет
Forced : Нет
Меню
00:00:00.000 : en:Chapter 1
00:10:13.571 : en:Chapter 2
00:20:24.556 : en:Chapter 3
00:31:05.697 : en:Chapter 4
00:41:18.934 : en:Chapter 5
00:51:08.273 : en:Chapter 6
01:01:21.052 : en:Chapter 7
01:11:53.434 : en:Chapter 8
01:23:58.867 : en:Chapter 9
01:33:18.718 : en:Chapter 10
01:41:57.444 : en:Chapter 11
01:47:34.448 : en:Chapter 12

-

*** Спасибо Прагматик за дорожки №2-7.
-
Скачать

Скачать торрент!

Как скачивать? · Что такое торрент? · Рейтинг и ограничения

Сайт не распространяет и не хранит электронные версии произведений, а лишь предоставляет доступ к создаваемому пользователями каталогу ссылок на торрент-файлы, которые содержат только списки хеш-сумм

[Профиль] [ЛС]
Показать сообщения:    
Ответить на тему

Текущее время: Сегодня 22:41

Часовой пояс: GMT + 4



Вы не можете начинать темы
Вы не можете отвечать на сообщения
Вы не можете редактировать свои сообщения
Вы не можете удалять свои сообщения
Вы не можете голосовать в опросах
Вы не можете прикреплять файлы к сообщениям
Вы не можете скачивать файлы