Пленники Барсова ущелья (Юрий Ерзинкян) [1956, Приключения, детский фильм, DVD5]

Ответить на тему
 
Автор Сообщение

user ®

Стаж: 7 лет 7 месяцев

Сообщений: 20008

Пост Пост: #1 от 07-Фев-2014 21:30

[Цитировать]

Пленники Барсова ущелья
Жанр: Приключения, детский фильм
Год выпуска: 1956
Продолжительность: 00:59:42
Режиссёр: Юрий Ерзинкян
В ролях: О. Бунятян, Г. Хажакян, Ашот Нерсесян, Юрий Хачатрян (Ашот), Г. Ходжагорян (Авдал), Араик Мкртумян (Саркис), Л. Ордоян (Шушик), Рубен Мкртчан (Гагик), Г. Галстян.
Описание: В селе, расположенном близ гор и ущелья, в дни весенних школьных каникул пятеро детей у костра читают книгу Арсеньева «Дерсу Узала». Один из них, по имени Авдал, пришел из кочевья в село за сахаром и табаком для пастухов. В тот же день Авдал должен был вернуться обратно. Дети уговорили его переночевать ночь в селе, обещая утром проводить до развилки дорог. Рано утром ребята собрались проводить гостя. В пути между двумя мальчиками возникает спор. Саркис предлагает идти коротким путем через Барсово ущелье, а Ашот утверждает, что выхода из ущелья нет. В конце концов ребята решают следовать дальше коротким путем. Когда они прошли Чёртов мост, вход в Барсово ущелье, их настигает проливной дождь, сопровождаемый сильной грозой. Происходит обвал. Рушится Чёртов мост, отрезав обратный путь. Таким образом дети оказываются в плену Барсова ущелья.
Качество видео: DVD5
Формат видео: DVD Video
Видео: MPEG-2, PAL, 720x576, VBR, 4:3, ~ 7433 kbps, 25 fps
Аудио1: русский, AC-3, 2 channels, 48.0 KHz, 192 Kbps
Аудио2: немецкий, AC-3, 2 channels, 48.0 KHz, 192 Kbps

MediaInfo

GeneralComplete name : Пленники Барсова ущелья/VIDEO_TS/VTS_01_1.VOBFormat : MPEG-PSFile size : 1 024 MiBDuration : 18mn 0sOverall bit rate mode : VariableOverall bit rate : 7 953 Kbps
VideoID : 224 (0xE0)Format : MPEG VideoFormat version : Version 2Format profile : Main@MainFormat settings, BVOP : YesFormat settings, Matrix : CustomDuration : 18mn 0sBit rate mode : VariableBit rate : 7 411 KbpsMaximum bit rate : 8 800 KbpsWidth : 720 pixelsHeight : 576 pixelsDisplay aspect ratio : 4:3Frame rate : 25.000 fpsStandard : PALColor space : YUVChroma subsampling : 4:2:0Bit depth : 8 bitsScan type : InterlacedScan order : Top Field FirstCompression mode : LossyBits/(Pixel*Frame) : 0.715Stream size : 954 MiB (93%)Color primaries : BT.470-2 System B, BT.470-2 System GTransfer characteristics : BT.470-2 System B, BT.470-2 System GMatrix coefficients : SMPTE 170M
Audio #1ID : 189 (0xBD)-128 (0x80)Format : AC-3Format/Info : Audio Coding 3Mode extension : CM (complete main)Muxing mode : DVD-VideoDuration : 17mn 59sBit rate mode : ConstantBit rate : 192 KbpsChannel(s) : 2 channelsChannel positions : Front: L RSampling rate : 48.0 KHzBit depth : 16 bitsCompression mode : LossyStream size : 24.7 MiB (2%)
Audio #2ID : 189 (0xBD)-129 (0x81)Format : AC-3Format/Info : Audio Coding 3Mode extension : CM (complete main)Muxing mode : DVD-VideoDuration : 17mn 59sBit rate mode : ConstantBit rate : 192 KbpsChannel(s) : 2 channelsChannel positions : Front: L RSampling rate : 48.0 KHzBit depth : 16 bitsCompression mode : LossyStream size : 24.7 MiB (2%)
Menu
Скачать

Скачать торрент!

Как скачивать? · Что такое торрент? · Рейтинг и ограничения

Сайт не распространяет и не хранит электронные версии произведений, а лишь предоставляет доступ к создаваемому пользователями каталогу ссылок на торрент-файлы, которые содержат только списки хеш-сумм

[Профиль] [ЛС]
Показать сообщения:    
Ответить на тему

Текущее время: Сегодня 03:50

Часовой пояс: GMT + 4



Вы не можете начинать темы
Вы не можете отвечать на сообщения
Вы не можете редактировать свои сообщения
Вы не можете удалять свои сообщения
Вы не можете голосовать в опросах
Вы не можете прикреплять файлы к сообщениям
Вы не можете скачивать файлы