На игре [Режиссёрская версия] (Павел Санаев) [2010, Боевик, приключения, фантастика, DVDRip]

Ответить на тему
 
Автор Сообщение

user ®

Стаж: 7 лет 7 месяцев

Сообщений: 20008

Пост Пост: #1 от 07-Фев-2014 06:25

[Цитировать]

На игре [Режиссёрская версия]
Жанр: Боевик, приключения, фантастика
Год выпуска: 2010
Продолжительность: 02:07:22
Режиссёр: Павел Санаев
В ролях: Алексей Бардуков, Агния Дитковските, Сергей Чирков, Павел Прилучный, Евгений Харланов, Виктор Вержбицкий, Игорь Скляр, Марина Петренко, Тихон Жизневский, Нодар Сирадзе
Описание: После оглушительной победы на турнире по киберспорту команде друзей-геймеров вручают диски с новейшей, только что разработанной игрой. Запустив игру, каждый из них подвергается воздействию, переводящему их игровые способности в реальные. Теперь и в жизни они лучшие бойцы, стрелки и гонщики. Данное событие не остается незамеченным. Властные структуры путем шантажа, обмана и подкупа предлагают геймерам "работу", которая использует их уникальные способности. Но как только обман раскрывается становиться понятно, что они не герои, спасающие страну, а банальные наемные убийцы. Встает вопрос: как быть дальше? Команда разделилась. Каждый идет к своей цели...

Качество видео: DVDRip (Исходник: DVD-9)
Формат видео: AVI
Видео: XviD, 704x304 (2.35:1), 1855 Кбит/с, 25 кадр/с
Аудио: Русский, Dolby AC3, 48000 Гц, 448 Кбит/с, 6 каналов (5.1)

Автор рипа - ivandubskoj

Особенности Режиссёрской версии

Фильм «На игре» задумывался как масштабный приключенческий боевик, способный доказать, что отечественный кинематограф способен состязаться на этом поле с основоположниками жанра - американцами. По ряду причин задуманная картина была выпущена на экраны дилогией из двух фильмов, что помешало многим зрителям получить цельное впечатление. Спустя некоторое время была смонтирована режиссерская версия, представляющая собой единую динамичную картину - 2 часа 7 минут взрывного адреналинового действия. В таком виде фильм был куплен для показа множеством стран и принял участие в ряде фестивалей на Родине жанра — в Лос Анджелесе и Нью Йорке. Более десяти призов, включая два главных приза за лучший фильм, свидетельствуют, что состязание с Голливудом засчитано в нашу пользу. «На игре» - одна из вершин российского кинематографа в жанре экшн, высоко оцененная профессионалами Фабрики Грез.

MediaInfo

General
Complete name : Na.igre.Director's.Cut.2010.DVDRip.avi
Format : AVI
Format/Info : Audio Video Interleave
Format profile : OpenDML
File size : 2.06 GiB
Duration : 2h 7mn
Overall bit rate : 2 313 Kbps
Movie name : На игре [Режиссёрская версия] (2010) DVDRip
Recorded date : 06.02.2014
Writing application : VirtualDubMod 1.5.10.3 (build 2550/release)
Writing library : VirtualDubMod build 2550/release
Copyright : rip by ivandubskoj
Video
ID : 0
Format : MPEG-4 Visual
Format profile : Advanced Simple@L5
Format settings, BVOP : 2
Format settings, QPel : No
Format settings, GMC : No warppoints
Format settings, Matrix : Custom
Codec ID : XVID
Codec ID/Hint : XviD
Duration : 2h 7mn
Bit rate : 1 855 Kbps
Width : 704 pixels
Height : 304 pixels
Display aspect ratio : 2.35:1
Frame rate : 25.000 fps
Color space : YUV
Chroma subsampling : 4:2:0
Bit depth : 8 bits
Scan type : Progressive
Compression mode : Lossy
Bits/(Pixel*Frame) : 0.346
Stream size : 1.65 GiB (80%)
Writing library : XviD 73
Audio
ID : 1
Format : AC-3
Format/Info : Audio Coding 3
Mode extension : CM (complete main)
Codec ID : 2000
Duration : 2h 7mn
Bit rate mode : Constant
Bit rate : 448 Kbps
Channel(s) : 6 channels
Channel positions : Front: L C R, Side: L R, LFE
Sampling rate : 48.0 KHz
Bit depth : 16 bits
Compression mode : Lossy
Stream size : 408 MiB (19%)
Alignment : Split accross interleaves
Interleave, duration : 64 ms (1.60 video frames)
Interleave, preload duration : 500 ms
Title : Russian

Скриншот c названием фильма

Скриншоты

Скачать

Скачать торрент!

Как скачивать? · Что такое торрент? · Рейтинг и ограничения

Сайт не распространяет и не хранит электронные версии произведений, а лишь предоставляет доступ к создаваемому пользователями каталогу ссылок на торрент-файлы, которые содержат только списки хеш-сумм

[Профиль] [ЛС]
Показать сообщения:    
Ответить на тему

Текущее время: Сегодня 23:41

Часовой пояс: GMT + 4



Вы не можете начинать темы
Вы не можете отвечать на сообщения
Вы не можете редактировать свои сообщения
Вы не можете удалять свои сообщения
Вы не можете голосовать в опросах
Вы не можете прикреплять файлы к сообщениям
Вы не можете скачивать файлы