Советник / The Counselor (Ридли Скотт / Ridley Scott) [2013, США, Великобритания, триллер, драма, криминал, BDRip 1080p] [Extended Cut] Dub + Sub Rus, Eng + Original Eng

Ответить на тему
 
Автор Сообщение

user ®

Стаж: 7 лет 7 месяцев

Сообщений: 20008

Пост Пост: #1 от 07-Фев-2014 00:55

[Цитировать]

Советник / The Counselor [Extended Cut]
«Соблазн велик»
-Страна: США, Великобритания
Студия: Chockstone Pictures
Жанр: триллер, драма, криминал
Год выпуска: 2013
Продолжительность: 02:17:56-Перевод: Профессиональный (дублированный) [Расширенные места переведены форсированными субтитрами.]
Cубтитры: Rus (Форсированные, Полные, Комментарии Ридли Скотта), Ukr, Eng, Eng (SDH).
Оригинальная аудиодорожка: английский-Режиссер: Ридли Скотт / Ridley Scott
В ролях: Майкл Фассбендер, Пенелопа Крус, Кэмерон Диаз, Хавьер Бардем, Брэд Питт, Бруно Ганц, Рози Перес, Тоби Кеббелл, Эмма Ригби, Эдгар Рамирес
Описание: Успешный адвокат, стоящий практически на вершине успеха и на пороге собственной свадьбы, из любопытства и, конечно, ради денег соглашается на предложение своего давнего знакомого, имеющего тесные связи с преступным миром, перевезти из Мексики в США партию кокаина стоимостью 20 млн. долл.
Рип от DON
Сэмпл: sendfile→, rusfolder→
Тип релиза: BDRip 1080p
Контейнер: MKV
Видео: 1920 x 800 (2.400), x264, CRF 15.5, L4.1, 23.976 fps, 13.9 Mbps
Аудио: 48 kHz, DTS 5.1 - 768 kbps |Рус. Дубляж, CEE + Оригинал|
Аудио 2: 48 kHz, DD 5.1 - 448 kbps |Укр. Дубляж, CEE + Оригинал|
Аудио 3: 48 kHz, DTS 5.1 - 1536 kbps |Оригинал|
Аудио 4: 48 kHz, DD - 2.0 - 224 kbps |Комментарии Ридли Скотта|

Release Info

За дорожки со вставками оригинала большое спасибо shuriken331
Technical information
RELEASE DATE......: 01/02/2014
RELEASE SIZE......: 15.40 GB
RUNTIME...........: 2h:17m:56s
VIDEO CODEC.......: x264, CRF 15.5, L4.1
VIDEO BITRATE.....: Variable @ 13.9 Mbps
RESOLUTION........: 1920x800
FRAMERATE.........: 23.976 fps
AUDIO.............: English DTS Core 5.1 @ 1.5 Mbps
AUDIO 2...........: English AC3 2.0 @ 224 Kbps - Commentary with Director Ridley Scott
SUBTITLES - SRT...: English forced, English SDH
CHAPTERS..........: Included
SOURCE............: The Counselor 2013 Extended 1080p Blu-ray AVC DTS-HD MA 5.1-LAZERS
SOURCE 2..........: The Counselor 2013 Theatrical 1080p Blu-ray AVC DTS-HD MA 5.1-CHDBits
GENRE.............: Crime | Drama | Thriller
IMDb RATING.......: 5.7/10 (23,122 votes)
IMDb LINK.........: http://www.imdb.com/title/tt2193215/
x264 [info]: frame I:1443 Avg QP:12.84 size:239318
x264 [info]: frame P:41470 Avg QP:14.12 size:123653
x264 [info]: frame B:155520 Avg QP:15.23 size: 59377
x264 [info]: consecutive B-frames: 1.7% 2.4% 8.2% 13.9% 20.5% 39.7% 8.8% 2.0% 2.8%
encoded 198433 frames, 3.34 fps, 14216.55 kb/s
NOTES
Theatrical Blu-ray has a little better PQ, so I took it and added missed scenes from Extended Blu-ray.

MediaInfo

Полное имя : The.Counselor.2013.Extended.Hybrid.1080p.BluRay.DTS.x264-DON.Rus.Ukr.Eng.mkv
Формат : Matroska
Версия формата : Version 4 / Version 2
Размер файла : 16.6 GiB
Продолжительность : 2h 17mn
Общий поток : 17.2 Mbps
Название фильма : The Counselor (2013) | Rip by DON
Дата кодирования : UTC 2014-02-05 20:27:31
Программа кодирования : mkvmerge v6.5.0 ('Isn't she lovely') built on Oct 20 2013 12:50:05
Библиотека кодирования : libebml v1.3.0 + libmatroska v1.4.1
Video
Идентификатор : 1
Формат : AVC
Формат/Информация : Advanced Video Codec
Профиль формата : High@L4.1
Параметр CABAC формата : Yes
Параметр ReFrames формата : 5 frames
Идентификатор кодека : V_MPEG4/ISO/AVC
Продолжительность : 2h 17mn
Битрейт : 13.9 Mbps
Ширина : 1 920 pixels
Высота : 800 pixels
Соотношение сторон : 2.40:1
Режим частоты кадров : Constant
Частота кадров : 23.976 fps
Цветовое пространство : YUV
Субдискретизация насыщенности : 4:2:0
Битовая глубина : 8 bits
Тип развёртки : Progressive
Бит/(Пиксели*Кадры) : 0.377
Размер потока : 13.4 GiB (81%)
Заголовок : The Counselor (2013) by Djex
Библиотека кодирования : x264 core 140 r2377 1ca7bb9
Настройки программы : cabac=1 / ref=5 / deblock=1:-3:-3 / analyse=0x3:0x133 / me=tesa / subme=10 / psy=1 / psy_rd=0.95:0.00 / mixed_ref=1 / me_range=24 / chroma_me=1 / trellis=2 / 8x8dct=1 / cqm=0 / deadzone=21,11 / fast_pskip=0 / chroma_qp_offset=-2 / threads=12 / lookahead_threads=2 / sliced_threads=0 / nr=0 / decimate=0 / interlaced=0 / bluray_compat=0 / constrained_intra=0 / bframes=8 / b_pyramid=2 / b_adapt=2 / b_bias=0 / direct=3 / weightb=1 / open_gop=0 / weightp=2 / keyint=240 / keyint_min=23 / scenecut=40 / intra_refresh=0 / rc_lookahead=60 / rc=crf / mbtree=0 / crf=15.5 / qcomp=0.60 / qpmin=0 / qpmax=69 / qpstep=4 / vbv_maxrate=62500 / vbv_bufsize=78125 / crf_max=0.0 / nal_hrd=none / filler=0 / ip_ratio=1.30 / pb_ratio=1.20 / aq=1:0.80
Язык : English
Default : Yes
Forced : No
Audio #1
Идентификатор : 2
Формат : DTS
Формат/Информация : Digital Theater Systems
Режим : 16
Параметр Endianness формата : Big
Идентификатор кодека : A_DTS
Продолжительность : 2h 17mn
Вид битрейта : Constant
Битрейт : 768 Kbps
Каналы : 6 channels
Расположение каналов : Front: L C R, Side: L R, LFE
Частота : 48.0 KHz
Битовая глубина : 24 bits
Метод сжатия : Lossy
Размер потока : 758 MiB (4%)
Заголовок : DTS 5.1 - 768 kbps |Дубляж, CEE + Оригинал|
Язык : Russian
Default : Yes
Forced : No
Audio #2
Идентификатор : 3
Формат : AC-3
Формат/Информация : Audio Coding 3
Расширение режима : CM (complete main)
Параметр Endianness формата : Big
Идентификатор кодека : A_AC3
Продолжительность : 2h 17mn
Вид битрейта : Constant
Битрейт : 448 Kbps
Каналы : 6 channels
Расположение каналов : Front: L C R, Side: L R, LFE
Частота : 48.0 KHz
Битовая глубина : 16 bits
Метод сжатия : Lossy
Размер потока : 442 MiB (3%)
Заголовок : DD 5.1 - 448 kbps |Дубляж, CEE + Оригинал|
Язык : Ukrainian
Default : No
Forced : No
Audio #3
Идентификатор : 4
Формат : DTS
Формат/Информация : Digital Theater Systems
Режим : 16
Параметр Endianness формата : Big
Идентификатор кодека : A_DTS
Продолжительность : 2h 17mn
Вид битрейта : Constant
Битрейт : 1 509 Kbps
Каналы : 6 channels
Расположение каналов : Front: L C R, Side: L R, LFE
Частота : 48.0 KHz
Битовая глубина : 24 bits
Метод сжатия : Lossy
Размер потока : 1.45 GiB (9%)
Заголовок : DTS 5.1 - 1536 kbps |Оригинал|
Язык : English
Default : No
Forced : No
Audio #4
Идентификатор : 5
Формат : AC-3
Формат/Информация : Audio Coding 3
Расширение режима : CM (complete main)
Параметр Endianness формата : Big
Идентификатор кодека : A_AC3
Продолжительность : 2h 17mn
Вид битрейта : Constant
Битрейт : 224 Kbps
Каналы : 2 channels
Расположение каналов : Front: L R
Частота : 48.0 KHz
Битовая глубина : 16 bits
Метод сжатия : Lossy
Размер потока : 221 MiB (1%)
Заголовок : DD - 2.0 - 224 kbps |Комментарии Ридли Скотта|
Язык : English
Default : No
Forced : No
Text #1
Идентификатор : 6
Формат : UTF-8
Идентификатор кодека : S_TEXT/UTF8
Идентификатор кодека/Информация : UTF-8 Plain Text
Заголовок : Форсированные
Язык : Russian
Default : Yes
Forced : No
Text #2
Идентификатор : 7
Формат : UTF-8
Идентификатор кодека : S_TEXT/UTF8
Идентификатор кодека/Информация : UTF-8 Plain Text
Заголовок : Полные
Язык : Russian
Default : No
Forced : No
Text #3
Идентификатор : 8
Формат : VobSub
Режим смешивания : zlib
Идентификатор кодека : S_VOBSUB
Идентификатор кодека/Информация : The same subtitle format used on DVDs
Заголовок : Комментарии Ридли Скотта
Язык : Russian
Default : No
Forced : No
Text #4
Идентификатор : 9
Формат : VobSub
Режим смешивания : zlib
Идентификатор кодека : S_VOBSUB
Идентификатор кодека/Информация : The same subtitle format used on DVDs
Язык : Ukrainian
Default : No
Forced : No
Text #5
Идентификатор : 10
Формат : UTF-8
Идентификатор кодека : S_TEXT/UTF8
Идентификатор кодека/Информация : UTF-8 Plain Text
Язык : English
Default : No
Forced : No
Text #6
Идентификатор : 11
Формат : UTF-8
Идентификатор кодека : S_TEXT/UTF8
Идентификатор кодека/Информация : UTF-8 Plain Text
Заголовок : SDH
Язык : English
Default : No
Forced : No
Menu
00:00:00.000 : en:00:00:00.000
00:06:38.023 : en:00:06:38.023
00:09:47.086 : en:00:09:47.086
00:12:12.565 : en:00:12:12.565
00:19:50.606 : en:00:19:50.606
00:27:59.678 : en:00:27:59.678
00:31:31.973 : en:00:31:31.973
00:34:35.240 : en:00:34:35.240
00:37:13.856 : en:00:37:13.856
00:46:31.831 : en:00:46:31.831
00:50:45.876 : en:00:50:45.876
00:56:54.494 : en:00:56:54.494
00:58:13.448 : en:00:58:13.448
00:59:55.258 : en:00:59:55.258
01:02:37.629 : en:01:02:37.629
01:04:40.710 : en:01:04:40.710
01:10:51.372 : en:01:10:51.372
01:15:33.487 : en:01:15:33.487
01:17:44.034 : en:01:17:44.034
01:19:53.705 : en:01:19:53.705
01:25:41.303 : en:01:25:41.303
01:30:10.113 : en:01:30:10.113
01:34:25.785 : en:01:34:25.785
01:38:29.779 : en:01:38:29.779
01:41:34.839 : en:01:41:34.839
01:44:25.843 : en:01:44:25.843
01:46:19.373 : en:01:46:19.373
01:48:58.365 : en:01:48:58.365
01:51:45.907 : en:01:51:45.907
01:58:04.452 : en:01:58:04.452
01:59:36.252 : en:01:59:36.252
02:03:57.138 : en:02:03:57.138
02:05:26.310 : en:02:05:26.310
02:08:22.778 : en:02:08:22.778
02:10:27.945 : en:02:10:27.945
02:13:53.650 : en:02:13:53.650

Скриншоты

EC BD.......................................................................HYBDRID BD............................................................DON





Скачать

Скачать торрент!

Как скачивать? · Что такое торрент? · Рейтинг и ограничения

Сайт не распространяет и не хранит электронные версии произведений, а лишь предоставляет доступ к создаваемому пользователями каталогу ссылок на торрент-файлы, которые содержат только списки хеш-сумм

[Профиль] [ЛС]
Показать сообщения:    
Ответить на тему

Текущее время: Сегодня 06:08

Часовой пояс: GMT + 4



Вы не можете начинать темы
Вы не можете отвечать на сообщения
Вы не можете редактировать свои сообщения
Вы не можете удалять свои сообщения
Вы не можете голосовать в опросах
Вы не можете прикреплять файлы к сообщениям
Вы не можете скачивать файлы