Капитан Филлипс / Captain Phillips (Пол Гринграсс / Paul Greengrass) [2013, США, боевик, триллер, драма, BDRip 720p] Dub + Dub Ukr + VO (Есарев) + AVO (Гаврилов) + Sub Rus, Ukr, Eng + Original Eng

Ответить на тему
 
Автор Сообщение

user ®

Стаж: 7 лет 7 месяцев

Сообщений: 20008

Пост Пост: #1 от 07-Фев-2014 00:55

[Цитировать]

Капитан Филлипс / Captain Phillips
Страна: США
Жанр: боевик, триллер, драма
Год выпуска: 2013
Продолжительность: 02:14:04
Перевод 1: Профессиональный (дублированный) Russian
Перевод 2: Одноголосый закадровый Д.Есарев
Перевод 3: Авторский одноголосый закадровый А.Гаврилов
Cубтитры: Russian (Forced, iTunes), Russian (iTunes), Ukrainian (Forced, Blu-ray CEE), English (Forced, iTunes), English, English (SDH), English (SDH-COLORED)
Оригинальная аудиодорожка: английский
Режиссер: Пол Гринграсс / Paul Greengrass
В ролях: Том Хэнкс, Баркхад Абди, Баркхад Абдирахман, Файсал Ахмед, Махат М. Али, Майкл Чернус, Юл Васкез, Макс Мартини, Кэтрин Кинер, Крис Малки
Описание: В начале апреля 2009 года, близ берегов Африки, несколько сомалийских пиратов атакуют и пытаются захватить массивный контейнеровоз MV Maersk Alabama. Команда корабля активно сопротивляется и в конце концов не даёт взять себя в плен. Захватчики вынуждены ретироваться и покинуть судно на небольшом катере, прихватив с собой немолодого капитана Ричарда Филлипса...
Доп. информация:
Сэмпл: http://yadi.sk/d/pJc-l3y6HPqCm
Тип релиза: BDRip 720p
Контейнер: MKV
Видео: AVC 1280x536 (2.38:1) 23,976 fps, 10664 kbps
Аудио#1: Russian 48 kHz, AC3 Dolby Digital, 3/2 (L,C,R,l,r) + LFE ch, ~ 640kbps (Дубляж)
Аудио#2: Ukrainian 48 kHz, AC3 Dolby Digital, 3/2 (L,C,R,l,r) + LFE ch, ~640 kbps (Дубляж)
Аудио#3: Russian 48 kHz, DTS , 3/2 (L,C,R,l,r) + LFE ch, ~1536 kbps (Одноголосый закадровый, Д.Есарев)
Аудио#4: Russian 48 kHz, DTS , 3/2 (L,C,R,l,r) + LFE ch, ~1536 kbps (Авторский одноголосый закадровый, А.Гаврилов)
Аудио#5: English 48 kHz, DTS , 3/2 (L,C,R,l,r) + LFE ch, ~1536 kbps
Аудио#6: English 48 kHz, AC3 Dolby Digital, 2/0 (L,C,R,l,r) + LFE ch, ~192 kbps (Commentary With Director Paul Greengrass)
  • Сохранены оригинальные чаптеры как на Blu-ray.
  • Перевод Дмитрия Есарева доступен благодаря будулайроманов, работа со звуком - Переводман. Благодарность Переулку Переводмана.
  • Перевод Андрея Гаврилова доступен благодаря пользователям форуму e180: foxlight, Nick, xerman13, пуля, Iceman, uchitel538, Nadoelo, v1111o, Daniel Rock, фёдор александрович, LAVR, Диммон, denis_mgn_1987, mitabrev, MyxAmoP, Kastro, chef&chef, axl-dr, oleg-k, Эдуард, karantin66, nimph, Loki1982, furria62, Ochkarik1, luka69, olegsoleg, rydanes, KINOGON, 2vova2, _shurik_, saenwert, GKillah, bla_, Chistobaev, Roman Lee, dsk71, Savely, skibichok, SavineX78, Valen, masta, Tio, ARTYq, GaryH, kondratzx, audiolubitel, dir, Евгений_1, User, JI79, Марлон, Denis2251, Skoped, Gross1978, Splinter, Lee Ray, Водолей, 48ronin, maximus10-99.

Видеоряд от DON

Captain Phillips 2013 1080p BluRay DD5.1 x264-DON
Technical information
RUNTIME........: 02:14:04SIZE...........: ~10.7 GBVIDEO CODEC....: x264 r2377kMod, CRF 17.0, L4.1, DXVAFRAMERATE......: 23.976 fpsBITRATE........: ~10664 kbpsRESOLUTION.....: 1280x536 (2.38:1)AUDIO#1........: English DD 5.1 @ 640 kbps (dolby pro encoder)AUDIO#2........: English DD 2.0 @ 192 kbps (commentary, as is)SUBTITLES......: English (Forced, Full, SDH, Commentary)CHAPTERS.......: IncludedSOURCE.........: Captain Phillips 2013 1080p Blu-ray AVC DTS-HD MA 5.1-PCH
ENCODER........: ProRockIlyaRELEASE DATE...: Jan 15 2013
x264 [info]: frame I:1071 Avg QP:14.25 size:116972x264 [info]: frame P:43454 Avg QP:15.85 size: 82148x264 [info]: frame B:148339 Avg QP:17.98 size: 47373x264 [info]: consecutive B-frames: 1.7% 3.5% 9.3% 24.8% 19.3% 32.3% 4.3% 1.4% 1.4% 1.1% 0.6% 0.3% encoded 192864 frames, 2.59 fps, 10663.47 kb/s
Сравнения: http://imgbox.com/g/0lwrGRGgyg

MI

General
Unique ID                                : 250759587225755837855515589933840623282 (0xBCA68A2F8C51166CA171F705937266B2)
Complete name                            : A:\Фильмы\Captain.Phillips.2013.720p.BluRay.DTS.3xRus.Ukr.2xEng.HDCLUB.mkv
Format                                   : Matroska
Format version                           : Version 2
File size                                : 15.6 GiB
Duration                                 : 2h 14mn
Overall bit rate                         : 16.7 Mbps
Movie name                               : Captain Phillips (2013) - Release for HDCLUB
Encoded date                             : UTC 2014-02-06 02:07:06
Writing application                      : mkvmerge v4.9.1 ('Ich will') сборка от Jul 11 2011 23:53:15
Writing library                          : libebml v1.2.1 + libmatroska v1.1.1
Video
ID                                       : 1
Format                                   : AVC
Format/Info                              : Advanced Video Codec
Format profile                           : High@L4.1
Format settings, CABAC                   : Yes
Format settings, ReFrames                : 11 frames
Codec ID                                 : V_MPEG4/ISO/AVC
Duration                                 : 2h 14mn
Bit rate                                 : 10.3 Mbps
Width                                    : 1 280 pixels
Height                                   : 536 pixels
Display aspect ratio                     : 2.40:1
Frame rate mode                          : Constant
Frame rate                               : 23.976 fps
Color space                              : YUV
Chroma subsampling                       : 4:2:0
Bit depth                                : 8 bits
Scan type                                : Progressive
Bits/(Pixel*Frame)                       : 0.628
Stream size                              : 9.68 GiB (62%)
Title                                    : Captain Phillips (2013) - Release for HDCLUB
Writing library                          : x264 core 140 r2377kMod 1ca7bb9
Encoding settings                        : cabac=1 / ref=11 / deblock=1:-3:-3 / analyse=0x3:0x113 / me=umh / subme=11 / psy=1 / fade_compensate=0.00 / psy_rd=1.00:0.00 / mixed_ref=1 / me_range=32 / chroma_me=1 / trellis=2 / 8x8dct=1 / cqm=0 / deadzone=6,6 / fast_pskip=0 / chroma_qp_offset=-3 / threads=8 / lookahead_threads=2 / sliced_threads=0 / nr=0 / decimate=0 / interlaced=0 / bluray_compat=0 / constrained_intra=0 / fgo=0 / bframes=11 / b_pyramid=2 / b_adapt=2 / b_bias=0 / direct=3 / weightb=1 / open_gop=0 / weightp=2 / keyint=240 / keyint_min=23 / scenecut=40 / intra_refresh=0 / rc_lookahead=40 / rc=crf / mbtree=0 / crf=17.0000 / qcomp=0.70 / qpmin=0 / qpmax=69 / qpstep=4 / vbv_maxrate=50000 / vbv_bufsize=62500 / crf_max=0.0 / nal_hrd=none / filler=0 / ip_ratio=1.40 / pb_ratio=1.30 / aq=3:0.80
Language                                 : English
Default                                  : Yes
Forced                                   : No
Audio #1
ID                                       : 2
Format                                   : AC-3
Format/Info                              : Audio Coding 3
Mode extension                           : CM (complete main)
Format settings, Endianness              : Big
Codec ID                                 : A_AC3
Duration                                 : 2h 14mn
Bit rate mode                            : Constant
Bit rate                                 : 640 Kbps
Channel(s)                               : 6 channels
Channel positions                        : Front: L C R, Side: L R, LFE
Sampling rate                            : 48.0 KHz
Bit depth                                : 16 bits
Compression mode                         : Lossy
Stream size                              : 614 MiB (4%)
Title                                    : AC3 5.1 @ 640 kbps - DUB, Blu-ray CEE
Language                                 : Russian
Default                                  : Yes
Forced                                   : No
Audio #2
ID                                       : 3
Format                                   : AC-3
Format/Info                              : Audio Coding 3
Mode extension                           : CM (complete main)
Format settings, Endianness              : Big
Codec ID                                 : A_AC3
Duration                                 : 2h 14mn
Bit rate mode                            : Constant
Bit rate                                 : 640 Kbps
Channel(s)                               : 6 channels
Channel positions                        : Front: L C R, Side: L R, LFE
Sampling rate                            : 48.0 KHz
Bit depth                                : 16 bits
Compression mode                         : Lossy
Stream size                              : 614 MiB (4%)
Title                                    : AC3 5.1 @ 640 kbps - DUB, Blu-ray CEE
Language                                 : Ukrainian
Default                                  : No
Forced                                   : No
Audio #3
ID                                       : 4
Format                                   : DTS
Format/Info                              : Digital Theater Systems
Mode                                     : 16
Format settings, Endianness              : Big
Codec ID                                 : A_DTS
Duration                                 : 2h 14mn
Bit rate mode                            : Constant
Bit rate                                 : 1 509 Kbps
Channel(s)                               : 6 channels
Channel positions                        : Front: L C R, Side: L R, LFE
Sampling rate                            : 48.0 KHz
Bit depth                                : 24 bits
Compression mode                         : Lossy
Stream size                              : 1.41 GiB (9%)
Title                                    : DTS 5.1 @ 1536 kbps - AVO, D.Esarev
Language                                 : Russian
Default                                  : No
Forced                                   : No
Audio #4
ID                                       : 5
Format                                   : DTS
Format/Info                              : Digital Theater Systems
Mode                                     : 16
Format settings, Endianness              : Big
Codec ID                                 : A_DTS
Duration                                 : 2h 14mn
Bit rate mode                            : Constant
Bit rate                                 : 1 509 Kbps
Channel(s)                               : 6 channels
Channel positions                        : Front: L C R, Side: L R, LFE
Sampling rate                            : 48.0 KHz
Bit depth                                : 16 bits
Compression mode                         : Lossy
Stream size                              : 1.41 GiB (9%)
Title                                    : DTS 5.1 @ 1536 kbps - AVO, A.Gavrilov
Language                                 : Russian
Default                                  : No
Forced                                   : No
Audio #5
ID                                       : 6
Format                                   : DTS
Format/Info                              : Digital Theater Systems
Mode                                     : 16
Format settings, Endianness              : Big
Codec ID                                 : A_DTS
Duration                                 : 2h 14mn
Bit rate mode                            : Constant
Bit rate                                 : 1 509 Kbps
Channel(s)                               : 6 channels
Channel positions                        : Front: L C R, Side: L R, LFE
Sampling rate                            : 48.0 KHz
Bit depth                                : 24 bits
Compression mode                         : Lossy
Delay relative to video                  : 11ms
Stream size                              : 1.41 GiB (9%)
Title                                    : DTS 5.1 @ 1536 kbps
Language                                 : English
Default                                  : No
Forced                                   : No
Audio #6
ID                                       : 7
Format                                   : AC-3
Format/Info                              : Audio Coding 3
Format profile                           : Dolby Digital
Mode extension                           : CM (complete main)
Format settings, Endianness              : Big
Codec ID                                 : A_AC3
Duration                                 : 2h 14mn
Bit rate mode                            : Constant
Bit rate                                 : 192 Kbps
Channel(s)                               : 2 channels
Channel positions                        : Front: L R
Sampling rate                            : 48.0 KHz
Bit depth                                : 16 bits
Compression mode                         : Lossy
Stream size                              : 184 MiB (1%)
Title                                    : AC3 2.0 @ 192 kbps - Commentary With Director Paul Greengrass
Language                                 : English
Default                                  : No
Forced                                   : No
Text #1
ID                                       : 8
Format                                   : UTF-8
Codec ID                                 : S_TEXT/UTF8
Codec ID/Info                            : UTF-8 Plain Text
Title                                    : Forced, iTunes
Language                                 : Russian
Default                                  : Yes
Forced                                   : Yes
Text #2
ID                                       : 9
Format                                   : UTF-8
Codec ID                                 : S_TEXT/UTF8
Codec ID/Info                            : UTF-8 Plain Text
Title                                    : iTunes
Language                                 : Russian
Default                                  : No
Forced                                   : No
Text #3
ID                                       : 10
Format                                   : UTF-8
Codec ID                                 : S_TEXT/UTF8
Codec ID/Info                            : UTF-8 Plain Text
Title                                    : Forced, Blu-ray CEE
Language                                 : Ukrainian
Default                                  : No
Forced                                   : No
Text #4
ID                                       : 11
Format                                   : UTF-8
Codec ID                                 : S_TEXT/UTF8
Codec ID/Info                            : UTF-8 Plain Text
Title                                    : Forced, iTunes
Language                                 : English
Default                                  : No
Forced                                   : No
Text #5
ID                                       : 12
Format                                   : UTF-8
Codec ID                                 : S_TEXT/UTF8
Codec ID/Info                            : UTF-8 Plain Text
Language                                 : English
Default                                  : No
Forced                                   : No
Text #6
ID                                       : 13
Format                                   : UTF-8
Codec ID                                 : S_TEXT/UTF8
Codec ID/Info                            : UTF-8 Plain Text
Title                                    : SDH
Language                                 : English
Default                                  : No
Forced                                   : No
Text #7
ID                                       : 14
Format                                   : UTF-8
Codec ID                                 : S_TEXT/UTF8
Codec ID/Info                            : UTF-8 Plain Text
Title                                    : SDH-COLORED
Language                                 : English
Default                                  : No
Forced                                   : No
Menu
00:00:00.000                             : en:00:00:00.000
00:09:12.927                             : en:00:09:12.927
00:15:30.138                             : en:00:15:30.138
00:22:48.742                             : en:00:22:48.742
00:30:11.435                             : en:00:30:11.435
00:39:38.876                             : en:00:39:38.876
00:48:01.003                             : en:00:48:01.003
00:58:24.751                             : en:00:58:24.751
01:04:36.539                             : en:01:04:36.539
01:13:02.837                             : en:01:13:02.837
01:19:14.249                             : en:01:19:14.249
01:25:41.261                             : en:01:25:41.261
01:34:14.023                             : en:01:34:14.023
01:41:44.598                             : en:01:41:44.598
01:51:32.102                             : en:01:51:32.102
02:02:38.851                             : en:02:02:38.851

Скриншоты

source vs DON



Скачать

Скачать торрент!

Как скачивать? · Что такое торрент? · Рейтинг и ограничения

Сайт не распространяет и не хранит электронные версии произведений, а лишь предоставляет доступ к создаваемому пользователями каталогу ссылок на торрент-файлы, которые содержат только списки хеш-сумм

[Профиль] [ЛС]
Показать сообщения:    
Ответить на тему

Текущее время: Сегодня 11:39

Часовой пояс: GMT + 4



Вы не можете начинать темы
Вы не можете отвечать на сообщения
Вы не можете редактировать свои сообщения
Вы не можете удалять свои сообщения
Вы не можете голосовать в опросах
Вы не можете прикреплять файлы к сообщениям
Вы не можете скачивать файлы