Программа / The Program (Дэвид С. Ворд / David S. Ward) [1993, США, драма, спорт, HDTV 1080i] DVO (НТВ+)

Ответить на тему
 
Автор Сообщение

user ®

Стаж: 7 лет 7 месяцев

Сообщений: 20008

Пост Пост: #1 от 06-Фев-2014 21:45

[Цитировать]

Программа / The Program
Страна: США
Студия: Samuel Goldwyn Company, The, Touchstone Pictures
Жанр: драма, спорт
Год выпуска: 1993
Продолжительность: 01:49:45
Перевод: Профессиональный (двухголосый закадровый) НТВ+
Cубтитры: нет
Оригинальная аудиодорожка: нет
Режиссер: Дэвид С. Ворд / David S. Ward
В ролях: Джеймс Каан, Хелли Берри, Омар Эппс, Крейг Шеффер, Кристи Свонсон, Абрахам Бенруби, Дуан Дэвис, Джон Пеннелл, Джои Лоурен Адамс, Дж.С. Куинн
Описание: Фильм описывает игровой сезон университетской команды по американскому футболу ESU Timberwolves. Новый тренер команды - Сэм Винтерс (Джеймс Каан), второй год подряд упускает шанс попасть в финал кубка университетской лиги. На него давят болельщики, пресса и жители городка, где тренируется команда. Следующий сезон не должен повториться так же неудачно. Но получиться ли это? Особенно если некоторые игроки, ключевых позиций, начинают злоупотреблять наркотиками, стероидами и алкоголем. Яркая и оторванная университетская жизнь мешает сосредоточиться на играх. Тренер проводит некоторую селекционную работу по набору новых талантливых игроков и это начинает давать свои плоды...Фильм насыщен очень красивыми игровыми моментами и драматическими событиями, как на поле, так и в жизни героев этой команды.

IMDB
Тип релиза: HDTV 1080i
Контейнер: TS
Видео: AVC 1920x1080 (16:9) 25.0fps Bit rate 7514Kbps
Аудио: MP2 48.0KHz 2ch 192 Kbps rus dvo

MediaInfo

Общее
Идентификатор : 1 (0x1)
Полное имя : E:\torrent\The Program_HDTV 1080i.ts
Формат : MPEG-TS
Размер файла : 6,22 Гбайт
Продолжительность : 1 ч. 49 м.
Режим общего битрейта : Переменный
Общий поток : 8109 Кбит/сек
Видео
Идентификатор : 1606 (0x646)
Идентификатор меню : 1 (0x1)
Формат : AVC
Формат/Информация : Advanced Video Codec
Профиль формата : High@L4.0
Параметр CABAC формата : Да
Параметр ReFrames формата : 3 кадра
Параметр GOP формата : M=4, N=32
Идентификатор кодека : 27
Продолжительность : 1 ч. 49 м.
Битрейт : 7514 Кбит/сек
Ширина : 1920 пикселей
Высота : 1080 пикселей
Соотношение сторон : 16:9
Частота кадров : 25,000 кадров/сек
Стандарт вещания : Component
Цветовое пространство : YUV
Субдискретизация насыщенности : 4:2:0
Битовая глубина : 8 бит
Тип развёртки : Чересстрочная
Порядок развёртки : Верхнее поле первое
Бит/(Пиксели*Кадры) : 0.145
Размер потока : 5,76 Гбайт (93%)
Основные цвета : BT.709
Характеристики трансфера : BT.709
Коэффициенты матрицы : BT.709
Аудио
Идентификатор : 2606 (0xA2E)
Идентификатор меню : 1 (0x1)
Формат : MPEG Audio
Версия формата : Version 1
Профиль формата : Layer 2
Идентификатор кодека : 3
Продолжительность : 1 ч. 49 м.
Вид битрейта : Постоянный
Битрейт : 192 Кбит/сек
Каналы : 2 канала
Частота : 48,0 КГц
Метод сжатия : С потерями
Размер потока : 151 Мбайт (2%)
Язык : Russian

Скриншот с названием фильма

Скриншоты


Сравнение с DVD


Скачать

Скачать торрент!

Как скачивать? · Что такое торрент? · Рейтинг и ограничения

Сайт не распространяет и не хранит электронные версии произведений, а лишь предоставляет доступ к создаваемому пользователями каталогу ссылок на торрент-файлы, которые содержат только списки хеш-сумм

[Профиль] [ЛС]
Показать сообщения:    
Ответить на тему

Текущее время: Сегодня 07:57

Часовой пояс: GMT + 4



Вы не можете начинать темы
Вы не можете отвечать на сообщения
Вы не можете редактировать свои сообщения
Вы не можете удалять свои сообщения
Вы не можете голосовать в опросах
Вы не можете прикреплять файлы к сообщениям
Вы не можете скачивать файлы