Якудза-зомби / Yakuza Zombie / Zombi Gokudo (Хирохиса Сасаки / Hirohisa Sasaki) [2001, Япония, Ужасы, DVDRip] VO (den904)

Ответить на тему
 
Автор Сообщение

user ®

Стаж: 13 лет

Сообщений: 15071

Пост Пост: #1 от 06-Фев-2014 15:25

[Цитировать]

Якудза-зомби / Yakuza Zombie / Zombi Gokudo
Страна: Япония
Жанр: Ужасы
Год выпуска: 2001
Продолжительность: 01:27:28
Перевод: Одноголосый закадровый (den904) по субтитрам (МЕГПЫХАРЬ & ОХ!Студия)
Cубтитры: нет
Режиссер: Хирохиса Сасаки / Hirohisa Sasaki
В ролях: Хитоши Озава, Миа Матсуура, Саори Тайра, Осаму Эбара
Описание: В 2002 году на экраны вышел фильм "Якудза. Кладбище чести", режиссера Такаси Миикэ, снятый по воспоминаниям легендарного якудзы Рикьо Ишиматсу и сделавший внушительные кассовые сборы по всему миру. Но до выхода на экраны, у него уже появилось продолжение. В 2001 году яркий представитель японского трэша Хироши Сасаки снял фильм "ЯКУДЗА ЗОМБИ". "Когда в аду слишком тесно от обиды и мести, дух одного из самых кровавых якудза вселяется в тело убитого водителя босса мафии и обрушивает свой гнев на предавших его друзей и убивших его врагов.
Семпл смотреть на Ютубе_
Сэмпл: http://multi-up.com/948182
Качество видео: DVDRip
Формат видео: AVI
Видео: 640x336 (1.90:1), 29.970 fps, XviD MPEG-4 ~948 kbps avg, 0.15 bit/pixel
Аудио: 48 kHz, MPEG Layer 3, 2 ch, ~192.00 kbps avg

MediaInfo

General
Complete name : I:\Работа\Охстудия\YakuzaZombie.avi
Format : AVI
Format/Info : Audio Video Interleave
File size : 722 MiB
Duration : 1h 27mn
Overall bit rate : 1 154 Kbps
Writing application : Lavf52.39.1
Video
ID : 0
Format : xvid
Codec ID : xvid
Duration : 1h 27mn
Bit rate : 949 Kbps
Width : 640 pixels
Height : 336 pixels
Display aspect ratio : 1.905
Frame rate : 29.970 fps
Bits/(Pixel*Frame) : 0.147
Stream size : 593 MiB (82%)
Audio
ID : 1
Format : MPEG Audio
Format version : Version 1
Format profile : Layer 3
Mode : Joint stereo
Mode extension : MS Stereo
Codec ID : 55
Codec ID/Hint : MP3
Duration : 1h 27mn
Bit rate mode : Constant
Bit rate : 192 Kbps
Channel(s) : 2 channels
Sampling rate : 48.0 KHz
Compression mode : Lossy
Stream size : 120 MiB (17%)
Alignment : Aligned on interleaves
Interleave, duration : 24 ms (0.72 video frame)
Interleave, preload duration : 24 ms
Writing library : LAME3.96.1

Скриншот c названием фильма

Скриншоты




Релиз от:
Скачать

Скачать торрент! Якудза-зомби / Yakuza Zombie / Zombi Gokudo (Хирохиса Сасаки / Hirohisa Sasaki) [2001, Япония, Ужасы, DVDRip] VO (den904)

Как скачивать? · Что такое торрент? · Рейтинг и ограничения

Сайт не распространяет и не хранит электронные версии произведений, а лишь предоставляет доступ к создаваемому пользователями каталогу ссылок на торрент-файлы, которые содержат только списки хеш-сумм

[Профиль] [ЛС]
Показать сообщения:    
Ответить на тему

Текущее время: Сегодня 20:25

Часовой пояс: GMT + 4



Вы не можете начинать темы
Вы не можете отвечать на сообщения
Вы не можете редактировать свои сообщения
Вы не можете удалять свои сообщения
Вы не можете голосовать в опросах
Вы не можете прикреплять файлы к сообщениям
Вы не можете скачивать файлы