Великий женский побег / Жестокая пытка в лагере для женщин-военнопленных / The Women\'s Great Escape / Yeosu daetalok (Ил-Хо Чан / Il-ho Jang, Чунг Тинг / Chung Ting) [1976, Южная Корея, триллер, драма, криминал, DVDRip-AVC] sub

Ответить на тему
 
Автор Сообщение

user ®

Стаж: 11 лет

Сообщений: 15151

Пост Пост: #1 от 06-Фев-2014 08:55

[Цитировать]

Великий женский побег / Жестокая пытка в лагере для женщин-военнопленных / The Women's Great Escape / Yeosu daetalok
Страна: Южная Корея
Жанр: триллер, драма, криминал
Год выпуска: 1976
Продолжительность: 01:20:26
Перевод: Субтитры вшитые
Оригинальная аудиодорожка: корейский
Режиссер: Ил-Хо Чан / Il-ho Jang, Чунг Тинг / Chung Ting
В ролях:
Фон Тинг Ки
Ко Кеунг
Мира Юн
Пей-Шан Чанг
Джун Чан Кеи
Wen-kuan Chung
Chen-ying Hon
Тэ-кун Ли
Хунг Ли
Сеок-хан Нэм
Описание: Японский офицер, на самом деле китаец, не может смириться с тем фактом, что его семья отвергает его за его политические убеждения и жестокость. Полный ненависти, он отпраляет своих родственников, включая и мать, в трудовую колонию.
Тамошние заключённые подвергаются пыткам и погибают. Несмотря на это, наши героини не сдаются и пытаются бежать.
Партизаны, обосновавшиеся в горах, также планируют масштабную атаку на японцев.
Релиз:

Качество видео: DVDRip-AVC
Формат видео: AVI
Видео: H264, 2 375 Kbps, 720x576, 25.000 fps
Аудио: AAC, 192 Kbps, 2 channels, 48.0 KHz

Скриншоты

инфо

General
Complete name : D:\torrent\1 раздачи\Великий женский побег\Великий женский побег (1976).avi
Format : AVI
Format/Info : Audio Video Interleave
Format profile : OpenDML
File size : 1.45 GiB
Duration : 1h 20mn
Overall bit rate mode : Variable
Overall bit rate : 2 583 Kbps
Writing application : Lavf55.12.100
Video
ID : 1
Format : AVC
Format/Info : Advanced Video Codec
Format profile : Main@L3.0
Format settings, CABAC : Yes
Format settings, ReFrames : 2 frames
Codec ID : H264
Duration : 1h 20mn
Bit rate : 2 375 Kbps
Width : 720 pixels
Height : 576 pixels
Display aspect ratio : 16:9
Frame rate mode : Variable
Frame rate : 25.000 fps
Standard : PAL
Color space : YUV
Chroma subsampling : 4:2:0
Bit depth : 8 bits
Scan type : Progressive
Bits/(Pixel*Frame) : 0.229
Stream size : 1.33 GiB (92%)
Audio
ID : 0
Format : AAC
Format/Info : Advanced Audio Codec
Format version : Version 2
Format profile : LC
Muxing mode : ADTS
Codec ID : FF
Duration : 1h 20mn
Bit rate mode : Variable
Bit rate : 192 Kbps
Channel count : 2 channels
Channel positions : Front: L R
Sampling rate : 48.0 KHz
Compression mode : Lossy
Stream size : 110 MiB (7%)
Alignment : Aligned on interleaves
Interleave, duration : 40 ms (1.00 video frame)
Скачать

Скачать торрент! Великий женский побег / Жестокая пытка в лагере для женщин-военнопленных / The Women\'s Great Escape / Yeosu daetalok (Ил-Хо Чан / Il-ho Jang, Чунг Тинг / Chung Ting) [1976, Южная Корея, триллер, драма, криминал, DVDRip-AVC] sub

Как скачивать? · Что такое торрент? · Рейтинг и ограничения

Сайт не распространяет и не хранит электронные версии произведений, а лишь предоставляет доступ к создаваемому пользователями каталогу ссылок на торрент-файлы, которые содержат только списки хеш-сумм

[Профиль] [ЛС]
Показать сообщения:    
Ответить на тему

Текущее время: Сегодня 00:15

Часовой пояс: GMT + 4



Вы не можете начинать темы
Вы не можете отвечать на сообщения
Вы не можете редактировать свои сообщения
Вы не можете удалять свои сообщения
Вы не можете голосовать в опросах
Вы не можете прикреплять файлы к сообщениям
Вы не можете скачивать файлы