Сумасшедшее кунг-фу / Mad Mad Kung Fu / Drunken Master Slippery Snake / Guai zhao ruan pi she / Gai shi chu ma (Хэ Мэнхуа / Ho Meng-Hua) [1980, Гонконг, боевые искусства, DVDRip] VO (Shaman)

Ответить на тему
 
Автор Сообщение

user ®

Стаж: 11 лет

Сообщений: 15151

Пост Пост: #1 от 05-Фев-2014 23:25

[Цитировать]

Сумасшедшее кунг-фу / Mad Mad Kung Fu / Drunken Master Slippery Snake / Guai zhao ruan pi she / Gai shi chu ma
Страна: Гонконг
Жанр: боевые искусства
Год выпуска: 1980
Продолжительность: 01:21:12
Перевод: Одноголосый закадровый Shaman
Cубтитры: нет
Режиссер: Хэ Мэнхуа / Ho Meng-Hua
В ролях: Клифф Лок, Саймон Юэнь, Питер Чань Лун, Ли Хайшэн, Кон Тоу, Чён Чиу, Чжэн Канъе, Ван Ханьчэнь
Описание: Наш старый знакомый пьяный мастер (Саймон Юэнь) в роли героя по прозвищу Бамбуковая палка встречает собирающегося повеситься гражданина. Тот рассказывает ему, что некий бандит Лун (Чен Хон-Йип) хочет жениться на его дочери и убьёт всех, кто будет ему в этом препятствовать. Бамбуковая палка тут же предлагает ему свою помощь и в результате некоторой разборки убивает этого бандита, который оказывается сыном ещё более серьёзного бандита Лун Йен Фена… Тут и начинается заварушка. Ли Хайшэн в роли Лун Йен Фена жаждет мести и под горячую руку попадает ученик мастера Бамбуковой палки (Питер Чань Лун) и его друг, в роли которого Клифф Лок (Shaman).
Благодарность: За исходник благодарность выражается Mozgotryas.
Качество видео: DVDRip
Формат видео: AVI
Видео: 720x304 (2.37:1), 25 fps, XviD build 50 ~2378 kbps avg, 0.43 bit/pixel
Аудио: 48 kHz, AC3 Dolby Digital, 2/0 (L,R) ch, ~192 kbps

MediaInfo

Format : AVI
Format/Info : Audio Video Interleave
File size : 1,46 Гбайт
Duration : 1 ч. 21 м.
Overall bit rate : 2580 Кбит/сек
Writing application : VirtualDubMod 1.5.10.3 | www.virtualdub-fr.org || (build 2550/release)
Writing library : VirtualDubMod build 2550/release
Видео
ID : 0
Format : MPEG-4 Visual
Format profile : Advanced Simple@L5
Format settings, BVOP : 2
Format settings, QPel : Нет
Format settings, GMC : Без точки перехода
Format settings, Matrix : Default (MPEG)
Codec ID : XVID
Codec ID/Hint : XviD
Duration : 1 ч. 21 м.
Bit rate : 2379 Кбит/сек
Width : 720 пикселей
Height : 304 пикселя
Display aspect ratio : 2,35:1
Frame rate : 25,000 кадров/сек
Color space : YUV
Chroma subsampling : 4:2:0
Bit depth : 8 бит
Scan type : Прогрессивная
Compression mode : С потерями
Bits/(Pixel*Frame) : 0.435
Stream size : 1,35 Гбайт (92%)
Writing library : XviD 1.2.1 (UTC 2008-12-04)
Аудио
ID : 1
Format : AC-3
Format/Info : Audio Coding 3
Mode extension : CM (complete main)
Format settings, Endianness : Big
Codec ID : 2000
Duration : 1 ч. 21 м.
Bit rate mode : Постоянный
Bit rate : 192 Кбит/сек
Channel(s) : 2 канала
Channel positions : Front: L R
Sampling rate : 48,0 КГц
Bit depth : 16 бит
Compression mode : С потерями
Stream size : 112 Мбайт (7%)
Alignment : Разделение по промежуткам
Interleave, duration : 40 мс. (1,00 видеокадр)
Interleave, preload duration : 500 мс.

Скриншот c названием фильма

Скриншоты

Скачать

Скачать торрент! Сумасшедшее кунг-фу / Mad Mad Kung Fu / Drunken Master Slippery Snake / Guai zhao ruan pi she / Gai shi chu ma (Хэ Мэнхуа / Ho Meng-Hua) [1980, Гонконг, боевые искусства, DVDRip] VO (Shaman)

Как скачивать? · Что такое торрент? · Рейтинг и ограничения

Сайт не распространяет и не хранит электронные версии произведений, а лишь предоставляет доступ к создаваемому пользователями каталогу ссылок на торрент-файлы, которые содержат только списки хеш-сумм

[Профиль] [ЛС]
Показать сообщения:    
Ответить на тему

Текущее время: Сегодня 04:03

Часовой пояс: GMT + 4



Вы не можете начинать темы
Вы не можете отвечать на сообщения
Вы не можете редактировать свои сообщения
Вы не можете удалять свои сообщения
Вы не можете голосовать в опросах
Вы не можете прикреплять файлы к сообщениям
Вы не можете скачивать файлы